Торрент файл
скачать торрент магнет ссылка Добавлен: 15 дек 2011, 15:56
Размер: 745.2 МБ
Сидеров: 26
Личеров: 5
Автор

СообщениеДобавлено: 15 дек 2011, 15:56 

Не в сети
Супермодератор
Аватара пользователя
Дата регистрации:
11 апр 2010, 18:10
Спасибо: 5802 / 7
Сообщения: 56779
Беглецы



Формат: SATRip-AVC, MKV, H.264, AC3
Режиссер: Арменак Назикян
Жанр: драма, криминал
Продолжительность: 01:29:52
Год выпуска: 2011

В ролях: Максим Дрозд, Игорь Головин, Роман Притула, Андрей Родимов, Юлия Бедарева, Иван Батарев, Игорь Павлов

Описание: Одинокий мужчина 45 лет, тренер по боксу Семён Евгеньевич всю свою жизнь тренирует подростков. Однажды к нему приходит его старый друг - Николай, он богатый и известный человек. Николай говорит Семёну о своей маленькой восьмилетней дочери.Жена Николая Ася умерла несколько лет назад, и у него осталась маленькая дочка Мила. Когда-то Николай увёл Асю у Семёна и с тех пор они больше не общались. Теперь Николай просит Семёна позаботиться о Миле, если с ним, Николаем, что-нибудь случится, ведь ему больше не кому доверять кроме старого друга. В тот же день Николай погибает.



Видео: 720 x 384 (1.875:1), 25.000 fps, AVC х264, High@L4.1, ~1 029 Kbps, 0.149 bit/pixel
Аудио: 48 kHz, A_AC3, L R 2ch, ~128 kbps

Релиз-Группа

Рип: jeenart
General
Unique ID: 177153941494404284107587634118910073443 (0x85469BAA6974900AA62A9C5917D4DA63)
Complete name: E:\РЕЛИЗЫ\Все релизы 16\beglezhu_[tfile.ru].mkv
Format: Matroska
File size: 745 MiB
Duration: 1h 29mn
Overall bit rate: 1 158 Kbps
Encoded date: UTC 2011-05-21 19:45:53
Writing application: mkvmerge v4.6.0 ('Still Crazy After All These Years') сборка от Apr1 2011 21:01:49
Writing library: libebml v1.2.0 + libmatroska v1.1.0

Video
ID: 1
Format: AVC
Format/Info: Advanced Video Codec
Format profile: High@L4.1
Format settings, CABAC: Yes
Format settings, ReFrames: 4 frames
Codec ID: V_MPEG4/ISO/AVC
Duration: 1h 29mn
Bit rate: 1 029 Kbps
Width: 720 pixels
Height: 384 pixels
Display aspect ratio: 1.875
Frame rate: 25.000 fps
Color space: YUV
Chroma subsampling: 4:2:0
Bit depth: 8 bits
Scan type: Progressive
Bits/(Pixel*Frame): 0.149
Stream size: 648 MiB (87%)
Writing library: x264 core 115 r1937 aa21558
Encoding settings: cabac=1 / ref=3 / deblock=1:-1:-1 / analyse=0x3:0x113 / me=hex / subme=7 / psy=1 / psy_rd=1.00:0.10 / mixed_ref=1 / me_range=16 / chroma_me=1 / trellis=1 / 8x8dct=1 / cqm=0 / deadzone=21,11 / fast_pskip=1 / chroma_qp_offset=-3 / threads=6 / sliced_threads=0 / nr=0 / decimate=1 / interlaced=0 / bluray_compat=0 / constrained_intra=0 / bframes=3 / b_pyramid=2 / b_adapt=1 / b_bias=0 / direct=1 / weightb=1 / open_gop=0 / weightp=2 / keyint=250 / keyint_min=25 / scenecut=40 / intra_refresh=0 / rc_lookahead=40 / rc=2pass / mbtree=1 / bitrate=1029 / ratetol=1.0 / qcomp=0.60 / qpmin=0 / qpmax=69 / qpstep=4 / cplxblur=20.0 / qblur=0.5 / ip_ratio=1.40 / aq=1:1.00

Audio
ID: 2
Format: AC-3
Format/Info: Audio Coding 3
Mode extension: CM (complete main)
Codec ID: A_AC3
Duration: 1h 29mn
Bit rate mode: Constant
Bit rate: 128 Kbps
Channel(s): 2 channels
Channel positions: Front: L R
Sampling rate: 48.0 KHz
Bit depth: 16 bits
Compression mode: Lossy
Stream size: 82.4 MiB (11%)




















Поделиться:




реклама партнёра


Вернуться к началу
 Профиль Отправить личное сообщение  
 
   Похожие торренты   Автор   Торрент   Размер 
В этой теме нет новых непрочитанных сообщений. Подозрение [Серия 1-4 из 4] (Арменак Назикян) [Детектив, криминал, 2014] SatRip

Dracon

6 | 2

2.36 ГБ

В этой теме нет новых непрочитанных сообщений. Подозрение [Серия 1-4 из 4] (Арменак Назикян) [Детектив, криминал, 2014] HDTVRip

Dracon

0 | 0

2.13 ГБ

В этой теме нет новых непрочитанных сообщений. Команда [01-24 из 24] (Арменак Назикян, Армен Арутюнян-Елецкий, Игорь Драка) [Криминал, 2015] HDTV 720p

Dracon

177 | 201

34.14 ГБ

В этой теме нет новых непрочитанных сообщений. Команда [01x01-24 из 24] (Арменак Назикян, Армен Арутюнян-Елецкий, Игорь Драка) [Криминал, 2015] HDTVRip

Dracon

223 | 56

12.88 ГБ

В этой теме нет новых непрочитанных сообщений. Дельта. Продолжение / Дельта - 2 [Серия 01-24 из 24] (Сергей Виноградов, Александр Калугин, Арменак Назикян) [боевик, 2015] SATRip

Dracon

140 | 52

14.71 ГБ

В этой теме нет новых непрочитанных сообщений. Дельта. Рыбнадзор / Дельта - 2 [1-2 сезоны: 1-46 серия из 48] (Сергей Виноградов, Александр Калугин, Арменак Назикян) [боевик, 2013-2015] SATRip

Dracon

2 | 4

27.3 ГБ

В этой теме нет новых непрочитанных сообщений. Дельта. Продолжение [S02] (Сергей Виноградов, Александр Калугин, Арменак Назикян) [боевик, 2015] HDTV 1080i

Dracon

69 | 63

64.79 ГБ


Начать новую тему Ответить на тему  [ 1 сообщение ] 




Для Мосгорсуда, Роскомнадзора и рекламодателей:: mosgorsud-torrent[собачка]yandex.ru