Торрент файл
скачать торрент магнет ссылка Добавлен: 15 дек 2011, 15:53
Размер: 1.45 ГБ
Сидеров: 36
Личеров: 7
Автор

СообщениеДобавлено: 15 дек 2011, 15:53 

Не в сети
Супермодератор
Аватара пользователя
Дата регистрации:
11 апр 2010, 18:10
Спасибо: 5802 / 7
Сообщения: 56779
Чужая

Формат: DVDRip-AVC, MKV, H.264, AC3

Режиссер: Антон Борматов
Жанр: драма, криминал
Продолжительность: 01:44:10
Год выпуска: 2010

В ролях: Наталья Романычева, Кирилл Полухин, Анатолий Отраднов, Евгений Мундум, Александр Голубков, Евгений Ткачук, Александр Большаков, Сергей Жарков, Дмитрий Ратомский, Ольга Бынкова

Описание: 1990-е. Бандитский Киев. Бригада из четырех бойцов получает задание доставить из Праги девушку по кличке «Чужая». Она — родная сестра арестованного Бабая, чьи показания могут навредить важным людям.



Видео: 720 x 552 (1024 x 552) (1.855), 25.000 fps, AVC (x264) High@L4.1, 1613 Kbps, 0.176 bit/pixel
Аудио: 48 kHz, AC3 Dolby Digital, 3/2 (L,C,R,l,r) + LFE ch, ~384 kbps avg

Релиз:













Общее
Уникальный идентификатор: 235422649360793489134572551786756071102 (0xB11CC0C48C6DCEBAAE320C9720145EBE)
Полное имя: C:\Фильмы\Русские\Чужая\Chuzhaja.2010.x264.DVDRip.(AVC).mkv
Формат: Matroska
Версия формата: Version 2
Размер файла: 1,45 Гбайт
Продолжительность: 1 ч. 44 м.
Общий поток: 1999 Кбит/сек
Название фильма: Alien Girl (2010)
Дата кодирования: UTC 2011-01-10 10:41:11
Программа кодирования: mkvmerge v3.4.0 ('Rapunzel') сборка от May 15 2010 09:38:20
Библиотека кодирования: libebml v0.8.0 + libmatroska v0.9.0

Видео
Идентификатор: 1
Формат: AVC
Формат/Информация: Advanced Video Codec
Профиль формата: High@L4.1
Параметр CABAC формата: Да
Параметр ReFrames формата: 5 кадров
Идентификатор кодека: V_MPEG4/ISO/AVC
Продолжительность: 1 ч. 44 м.
Битрейт: 1613 Кбит/сек
Ширина: 720 пикселей
Высота: 552 пикселя
Соотношение сторон: 1,855
Частота кадров: 25,000 кадров/сек
Цветовое пространство: YUV
Субдискретизация насыщенности: 4:2:0
Битовая глубина: 8 бит
Тип развёртки: Прогрессивная
Бит/(Пиксели*Кадры): 0.162
Размер потока: 1,15 Гбайт (79%)
Заголовок: Alien Girl (2010)
Библиотека кодирования: x264 core 112 r1834 a51816a
Настройки программы: cabac=1 / ref=5 / deblock=1:-3:-3 / analyse=0x3:0x133 / me=umh / subme=9 / psy=1 / psy_rd=0.80:0.00 / mixed_ref=1 / me_range=32 / chroma_me=1 / trellis=2 / 8x8dct=1 / cqm=0 / deadzone=21,11 / fast_pskip=0 / chroma_qp_offset=-3 / threads=3 / sliced_threads=0 / nr=0 / decimate=1 / interlaced=0 / constrained_intra=0 / bframes=7 / b_pyramid=2 / b_adapt=2 / b_bias=0 / direct=3 / weightb=1 / open_gop=0 / weightp=2 / keyint=250 / keyint_min=25 / scenecut=40 / intra_refresh=0 / rc_lookahead=40 / rc=2pass / mbtree=1 / bitrate=1613 / ratetol=1.0 / qcomp=0.60 / qpmin=10 / qpmax=51 / qpstep=4 / cplxblur=20.0 / qblur=0.5 / ip_ratio=1.40 / aq=1:0.70
Язык: Russian
Default: Да
Forced: Нет

Аудио
Идентификатор: 2
Формат: AC-3
Формат/Информация: Audio Coding 3
Расширение режима: CM (complete main)
Идентификатор кодека: A_AC3
Продолжительность: 1 ч. 44 м.
Вид битрейта: Постоянный
Битрейт: 384 Кбит/сек
Каналы: 6 каналов
Расположение каналов: Front: L C R, Side: L R, LFE
Частота: 48,0 КГц
Битовая глубина: 16 бит
Метод сжатия: С потерями
Размер потока: 286 Мбайт (19%)
Язык: Russian
Default: Да
Forced: Нет





















Поделиться:




реклама партнёра


Вернуться к началу
 Профиль Отправить личное сообщение  
 
   Похожие торренты   Автор   Торрент   Размер 
В этой теме нет новых непрочитанных сообщений. Чужая нация / Alien Nation [Фантастика, боевик, криминал, 1988] BDRip, Mvo+Avo

salma3

92 | 4

1.45 ГБ

В этой теме нет новых непрочитанных сообщений. Чужая нация / Alien Nation [фантастика, боевик, криминал, 1988] BDRemux 1080p, Mvo

salma3

2 | 1

21.73 ГБ

В этой теме нет новых непрочитанных сообщений. Чужая земля / Outland [ фантастика, боевик, триллер, криминал, 1981] BDRip 1080p, Dub+Dvo+Sub

salma3

56 | 6

7.75 ГБ

В этой теме нет новых непрочитанных сообщений. Роджер - Чужая война [2010, Rock, MP3]

PriZraK

0 | 2

38.34 МБ

В этой теме нет новых непрочитанных сообщений. Чужая жизнь [10 из 10] [Мелодрама, драма, 2014] HDTVRip

iopuk60

0 | 2

4.35 ГБ

В этой теме нет новых непрочитанных сообщений. Чужая страна / Strangerland (Ким Фаррант) [Триллер, драма, 2015] HDRip, avo

Dracon

20 | 1

2.05 ГБ

В этой теме нет новых непрочитанных сообщений. Чужая страна / Strangerland (Ким Фаррант) [Триллер, драма, 2015] HDRip, avo

Dracon

408 | 13

1.37 ГБ


Начать новую тему Ответить на тему  [ 1 сообщение ] 




Для Мосгорсуда, Роскомнадзора и рекламодателей:: mosgorsud-torrent[собачка]yandex.ru