Торрент файл
скачать торрент магнет ссылка Добавлен: 15 дек 2011, 15:26
Размер: 1.45 ГБ
Сидеров: 81
Личеров: 8
Автор

СообщениеДобавлено: 15 дек 2011, 15:26 

Не в сети
Супермодератор
Аватара пользователя
Дата регистрации:
11 апр 2010, 18:10
Спасибо: 5960 / 7
Сообщения: 56765
[b]Статский советник [Полная телевизионная версия][/b]



Формат: SATRip-AVC, MKV, H.264, AC3

Режиссер: Филипп Янковский
Жанр: детектив, драма, приключения, криминал

Продолжительность: 03:11:28 (01:37:06 + 01:34:22)

Год выпуска: 2005

В ролях: , , , , , , , , , , Эмилия Спивак

Описание: Фильм снят по мотивам романа Бориса Акунина "Статский советник" из серии "Приключения Эраста Фандорина". Блистательная детективная интрига разворачивается на фоне парадных фасадов и заснеженных аллей старой Москвы, в пышных гостиных и мрачных закоулках. Высокопоставленные чиновники, банкиры, террористы, загадочные красавицы и налетчики действуют в "Статском советнике", превращая историю о политических убийствах конца XIX века в захватывающее зрелище.



Видео: 704x432 (1.63:1), 25 fps, AVC (x264) High@L4.1 ~880-908 kbps avg, 0.12 bit/pixel

Аудио: 48 kHz, AC3 Dolby Digital, 2/0 (L,R) ch, ~192 kbps avg

Доп. информация: данная версия по продолжительности больше ~ на 1 час и 2 минуты, kino-teatr.ru



Релиз группы: R.G.NasheKino
Автор рипа: Landmesser



Часть 1
Общее
Уникальный идентификатор: 184519644823244258828079277926836555551 (0x8AD130E0BDBE49B98E11B1B0CC4F4F1F)
Полное имя: D:\Статский советник.Полная версия.2005.SATRip-AVC.h264.AC3_1.45GB_R.G.NasheKino_[tfile.ru]\Статский советник.Полная версия.2005.SATRip-AVC.h264.AC3_R.G.NasheKino_s01_[tfile.ru].mkv
Формат: Matroska
Размер файла: 746 Мбайт
Продолжительность: 1 ч. 37 м.
Общий поток: 1074 Кбит/сек
Дата кодирования: UTC 2011-10-16 21:32:41
Программа кодирования: mkvmerge v4.9.1 ('Ich will') built on Sep 21 2011 17:48:11
Библиотека кодирования: libebml v1.2.1 + libmatroska v1.2.0

Видео
Идентификатор: 1
Формат: AVC
Формат/Информация: Advanced Video Codec
Профиль формата: High@L4.1
Параметр CABAC формата: Да
Параметр ReFrames формата: 4 кадры
Параметры GOP формата: M=4, N=8
Идентификатор кодека: V_MPEG4/ISO/AVC
Продолжительность: 1 ч. 37 м.
Битрейт: 880 Кбит/сек
Ширина: 704 пикс.
Высота: 432 пикс.
Соотношение сторон: 1,630
Частота кадров: 25,000 кадр/сек
Цветовое пространство: YUV
Подвыборка цветности: 4:2:0
Битовая глубина: 8 бит
Тип развёртки: Прогрессивная
Бит/(Пиксели*Кадры): 0.116
Размер потока: 598 Мбайт (80%)
Библиотека кодирования: x264 core 118 r2085 8a62835
Настройки программы: cabac=1 / ref=3 / deblock=1:0:0 / analyse=0x3:0x113 / me=hex / subme=7 / psy=1 / psy_rd=1.00:0.10 / mixed_ref=1 / me_range=16 / chroma_me=1 / trellis=1 / 8x8dct=1 / cqm=0 / deadzone=21,11 / fast_pskip=1 / chroma_qp_offset=-3 / threads=3 / sliced_threads=0 / nr=0 / decimate=1 / interlaced=0 / bluray_compat=0 / constrained_intra=0 / bframes=3 / b_pyramid=2 / b_adapt=1 / b_bias=0 / direct=3 / weightb=1 / open_gop=0 / weightp=2 / keyint=250 / keyint_min=25 / scenecut=40 / intra_refresh=0 / rc_lookahead=40 / rc=2pass / mbtree=1 / bitrate=880 / ratetol=1.0 / qcomp=0.60 / qpmin=0 / qpmax=69 / qpstep=4 / cplxblur=20.0 / qblur=0.5 / ip_ratio=1.40 / aq=1:1.00

Аудио
Идентификатор: 2
Формат: AC-3
Формат/Информация: Audio Coding 3
Расширение режима: CM (complete main)
Идентификатор кодека: A_AC3
Продолжительность: 1 ч. 37 м.
Вид битрейта: Постоянный
Битрейт: 192 Кбит/сек
Канал(ы): 2 канала(ов)
Расположение каналов: Front: L R
Частота: 48,0 КГц
Битовая глубина: 16 бит
Метод сжатия: С потерями
Размер потока: 133 Мбайт (18%)

Часть 2
Общее
Уникальный идентификатор: 177934286815329984050304951788428212011 (0x85DCE5A9126AC5A8BE3D9339986A372B)
Полное имя: D:\Статский советник.Полная версия.2005.SATRip-AVC.h264.AC3_1.45GB_R.G.NasheKino_[tfile.ru]\Статский советник.Полная версия.2005.SATRip-AVC.h264.AC3_R.G.NasheKino_s02_[tfile.ru].mkv
Формат: Matroska
Размер файла: 744 Мбайт
Продолжительность: 1 ч. 34 м.
Общий поток: 1102 Кбит/сек
Дата кодирования: UTC 2011-10-16 19:43:41
Программа кодирования: mkvmerge v4.9.1 ('Ich will') built on Sep 21 2011 17:48:11
Библиотека кодирования: libebml v1.2.1 + libmatroska v1.2.0

Видео
Идентификатор: 1
Формат: AVC
Формат/Информация: Advanced Video Codec
Профиль формата: High@L4.1
Параметр CABAC формата: Да
Параметр ReFrames формата: 4 кадры
Идентификатор кодека: V_MPEG4/ISO/AVC
Продолжительность: 1 ч. 34 м.
Битрейт: 908 Кбит/сек
Ширина: 704 пикс.
Высота: 432 пикс.
Соотношение сторон: 1,630
Частота кадров: 25,000 кадр/сек
Цветовое пространство: YUV
Подвыборка цветности: 4:2:0
Битовая глубина: 8 бит
Тип развёртки: Прогрессивная
Бит/(Пиксели*Кадры): 0.119
Размер потока: 599 Мбайт (81%)
Библиотека кодирования: x264 core 118 r2085 8a62835
Настройки программы: cabac=1 / ref=3 / deblock=1:0:0 / analyse=0x3:0x113 / me=hex / subme=7 / psy=1 / psy_rd=1.00:0.10 / mixed_ref=1 / me_range=16 / chroma_me=1 / trellis=1 / 8x8dct=1 / cqm=0 / deadzone=21,11 / fast_pskip=1 / chroma_qp_offset=-3 / threads=3 / sliced_threads=0 / nr=0 / decimate=1 / interlaced=0 / bluray_compat=0 / constrained_intra=0 / bframes=3 / b_pyramid=2 / b_adapt=1 / b_bias=0 / direct=3 / weightb=1 / open_gop=0 / weightp=2 / keyint=250 / keyint_min=25 / scenecut=40 / intra_refresh=0 / rc_lookahead=40 / rc=2pass / mbtree=1 / bitrate=908 / ratetol=1.0 / qcomp=0.60 / qpmin=0 / qpmax=69 / qpstep=4 / cplxblur=20.0 / qblur=0.5 / ip_ratio=1.40 / aq=1:1.00

Аудио
Идентификатор: 2
Формат: AC-3
Формат/Информация: Audio Coding 3
Расширение режима: CM (complete main)
Идентификатор кодека: A_AC3
Продолжительность: 1 ч. 34 м.
Вид битрейта: Постоянный
Битрейт: 192 Кбит/сек
Канал(ы): 2 канала(ов)
Расположение каналов: Front: L R
Частота: 48,0 КГц
Битовая глубина: 16 бит
Метод сжатия: С потерями
Размер потока: 130 Мбайт (17%)


Золотой орел, 2006 год
Победитель (2):
Лучшая мужская роль (Никита Михалков);
Лучшая мужская роль второго плана (Константин Хабенский)

Номинации (3):
Лучший фильм;
Лучшая женская роль второго плана (Мария Миронова);
Лучшая мужская роль второго плана (Владимир Машков)

Кинонаграды «MTV-Россия», 2006 год
Номинации (3):
Лучшая женская роль (Оксана Фандера);
Лучшая экранная команда;
Лучший поцелуй (Оксана Фандера, Константин Хабенский)

Ника, 2006 год
Победитель (1):
Лучшая работа художника-постановщика

Номинации (2):
Лучшая мужская роль (Никита Михалков);
Лучшая женская роль второго плана (Оксана Фандера)

Кинотавр, 2005 год
Победитель (1):
Лучшая мужская роль (Никита Михалков)

Номинации (1):
Главный приз

























Поделиться:




реклама партнёра


Вернуться к началу
 Профиль Отправить личное сообщение  
 
   Похожие торренты   Автор   Торрент   Размер 
В этой теме нет новых непрочитанных сообщений. Граница времени [Серия 1-23 из ??] (Филипп Коршунов) [Детектив, криминальный фильм, научная фантастика, приключения, 2015] SATRip

Dracon

141 | 93

14.15 ГБ

В этой теме нет новых непрочитанных сообщений. Час Сыча [Серии 1-4 из 4] (Владимир Янковский) [Детектив, 2015] SATRip

Dracon

23 | 2

2.07 ГБ

В этой теме нет новых непрочитанных сообщений. Кон-Тики / Kon-Tiki (Хоаким Роннинг / Joachim Rønning, Эспен Сандберг / Espen Sandberg) [2012г., Норвегия, приключения, биография, история, BDRip] AVO (полная версия)

Alfredovich

199 | 16

2.18 ГБ

В этой теме нет новых непрочитанных сообщений. Побег / В бегах / The Getaway [боевик, триллер, драма, 1994] HDRip, Mvo [Полная версия]

salma3

245 | 70

1.45 ГБ

В этой теме нет новых непрочитанных сообщений. Они сражались за Родину (Сергей Бондарчук) [Военный, драма, 1975] HDTVRip [Полная версия]

Dracon

77 | 1

2.73 ГБ

В этой теме нет новых непрочитанных сообщений. Любовь на троих / L'amour aux trousses (Филипп де Шоврон / Philippe de Chauveron) [2005 г., Франция, комедия, мелодрама, криминал, DVDRip] DVO

Alfredovich

4 | 3

1.36 ГБ

В этой теме нет новых непрочитанных сообщений. Марш-бросок: Охота на «Охотника» [серия 1-4 из 4] (Владимир Кильбург, Владимир Янковский) [криминал, 2015] SATRip

Dracon

421 | 92

2.41 ГБ


Начать новую тему Ответить на тему  [ 1 сообщение ] 




Для Мосгорсуда, Роскомнадзора и рекламодателей:: mosgorsud-torrent[собачка]yandex.ru