Торрент файл
скачать торрент магнет ссылка Добавлен: 15 дек 2011, 15:04
Размер: 2.98 ГБ
Сидеров: 85
Личеров: 15
Автор

СообщениеДобавлено: 15 дек 2011, 15:04 

Не в сети
Супермодератор
Аватара пользователя
Дата регистрации:
11 апр 2010, 18:10
Спасибо: 5801 / 7
Сообщения: 56779
Утомленные солнцем 2: Предстояние

Формат: HDRip-AVC, MKV, H.264, AC3
Режиссер: Никита Михалков
Жанр: драма, военный
Продолжительность: 03:00:41
Год выпуска: 2010

В ролях: Виктория Толстоганова, Олег Меньшиков, Надежда Михалкова, Никита Михалков, Дмитрий Дюжев, Андрей Панин, Александр Пашутин, Валентин Гафт, Николай Козак, Иван Добронравов

Описание: Продолжение картины 1994 года. Героям первого фильма придется пройти сквозь пекло Великой Отечественной войны, чтобы найти друг друга и попытаться вновь стать счастливыми.
Бывший комдив Котов, несправедливо осуждённый в 30-е годы как враг народа, чудом выжил и был отправлен на войну обычным рядовым бойцом штрафного батальона. Воевал, как все: в грязи, холоде и голоде, не заглядывая в будущее больше, чем на один день, да и тот надо было суметь прожить. Прожить и выжить в аду, которым была военная передовая. Его спасла вера. Вера в свою страну, вера в Бога и вера его дочери Нади в то, что отец жив....




Видео: 1280 x 544 (2.349), 24.000 fps, AVC, х264, High@L4.1, ~ 1 925 Kbps Kbps, 0.115 bit/pixel
Аудио: 48 kHz, AC3 Dolby Digital, 3/2 (L,C,R,l,r) + LFE ch, ~448 kbps

General
Unique ID: 243408055366823577845785293873627590514 (0xB71EAFAE50EE670BBF2DFF106090EF72)
Complete name: E:\РЕЛИЗЫ\Все релизы 16\ytomlennue_colnchem_2_[tfile.ru].mkv
Format: Matroska
File size: 2.98 GiB
Duration: 3h 0mn
Overall bit rate: 2 359 Kbps
Movie name: Rip by NigAndr (NOLIMITS-TEAM.RU)
Encoded date: UTC 2010-10-06 07:38:42
Writing application: mkvmerge v3.0.0 ('Hang up your Hang-Ups') built on Dec 12 2009 15:20:35
Writing library: libebml v0.7.9 + libmatroska v0.8.1

Video
ID: 1
Format: AVC
Format/Info: Advanced Video Codec
Format profile: High@L4.1
Format settings, CABAC: Yes
Format settings, ReFrames: 3 frames
Format settings, GOP: M=4, N=16
Codec ID: V_MPEG4/ISO/AVC
Duration: 3h 0mn
Bit rate mode: Variable
Bit rate: 1 925 Kbps
Maximum bit rate: 17.5 Mbps
Width: 1 280 pixels
Height: 544 pixels
Display aspect ratio: 2.35:1
Original display aspect ratio: 2.35:1
Frame rate: 24.000 fps
Color space: YUV
Chroma subsampling: 4:2:0
Bit depth: 8 bits
Scan type: Progressive
Bits/(Pixel*Frame): 0.115
Stream size: 2.35 GiB (79%)
Title: Утомленные солнцем 2. Предстояние.(2010).[NoLimits-Team.ru]
Writing library: x264 core 104 r1713 c276662
Encoding settings: cabac=1 / ref=1 / deblock=1:0:0 / analyse=0x3:0x3 / me=dia / subme=1 / psy=1 / psy_rd=0.00:0.00 / mixed_ref=0 / me_range=16 / chroma_me=1 / trellis=0 / 8x8dct=1 / cqm=0 / deadzone=21,11 / fast_pskip=1 / chroma_qp_offset=0 / threads=6 / sliced_threads=0 / slices=4 / nr=0 / decimate=1 / interlaced=0 / constrained_intra=0 / bframes=3 / b_pyramid=1 / b_adapt=1 / b_bias=0 / direct=1 / weightb=1 / open_gop=0 / weightp=0 / keyint=24 / keyint_min=1 / scenecut=40 / intra_refresh=0 / rc_lookahead=0 / rc=abr / mbtree=0 / bitrate=1925 / ratetol=1.0 / qcomp=0.60 / qpmin=0 / qpmax=51 / qpstep=4 / vbv_maxrate=17500 / vbv_bufsize=14500 / ip_ratio=1.10 / pb_ratio=1.10 / aq=1:1.00 / nal_hrd=vbr
Language: English

Audio
ID: 2
Format: AC-3
Format/Info: Audio Coding 3
Mode extension: CM (complete main)
Codec ID: A_AC3
Duration: 3h 0mn
Bit rate mode: Constant
Bit rate: 448 Kbps
Channel(s): 6 channels
Channel positions: Front: L C R, Side: L R, LFE
Sampling rate: 48.0 KHz
Bit depth: 16 bits
Compression mode: Lossy
Stream size: 579 MiB (19%)
Title: Оригинал (Не требуется)
Language: Russian


• Помощь в съемке батальных сцен была оказана Министерством обороны России. Часть фильма снимали в Германии, задействовав немецких актеров, а также германскую военную технику и костюмы.
• Сценарий разрабатывался на протяжении 4-х лет. Съемки фильма начались в конце 2005 года.
• В массовке участвовало практически все местное население поселка Шушары Пушкинского района Санкт-Петербурга, возле которого снимались все батальные сцены. Рядом, на станции Шушары снимались сцены на железной дороге. Паровозы и вагоны военных лет предоставил Центральный музей железнодорожного транспорта Российской Федерации.
• Для съемок под Гороховцом (Владимирская область) через речку Клязьму построили мост, который мог выдержать вес нескольких танков. По сценарию его взрывают немцы. До момента финальной съемки мост стоял почти год, чтобы состариться и выглядеть в кадре натурально. Но местные жители успели так привыкнуть к переправе, что, когда ее взорвали, стали писать письма во всевозможные инстанции - зачем убрали мост.
• Во время создания сцены, когда Котова давит танк, Никиту Михалкова в каждом дубле засыпали десятками килограммов промерзшей земли, а он должен был откопаться и выбраться из завала. Все это происходило в 30-градусный мороз.
















Поделиться:




реклама партнёра


Вернуться к началу
 Профиль Отправить личное сообщение  
 
   Похожие торренты   Автор   Торрент   Размер 
В этой теме нет новых непрочитанных сообщений. Место под солнцем / En plats i solen [триллер, драма, криминал, 2012] HDRip, Mvo

salma3

148 | 7

1.37 ГБ

В этой теме нет новых непрочитанных сообщений. Никита / Nikita [S01-04] [Боевик, триллер, драма, криминал, 2010-2013] WEB-DLRip, Dvo [NewStudio]

salma3

20 | 18

34.67 ГБ

В этой теме нет новых непрочитанных сообщений. Иван Ермий & Духовное Оружие - Предстояние [2012, Russian Rock , Punk Rock, MP3]

PriZraK

0 | 1

130.49 МБ

В этой теме нет новых непрочитанных сообщений. Мистер пип / Mr. Pip [драма, военный, 2012] HDRip, mvo+sub

Dracon

196 | 4

1.53 ГБ

В этой теме нет новых непрочитанных сообщений. Патруль / The Patrol [Драма, Военный, 2013] HDRip, avo

Dracon

5 | 2

1.37 ГБ

В этой теме нет новых непрочитанных сообщений. Всевидящее око / Eye in the Sky [триллер, драма, военный, 2015] HDRip, Mvo

salma3

10 | 1

1.27 ГБ

В этой теме нет новых непрочитанных сообщений. Избранный / Chosen [драма, военный, 2016] HDRip, Mvo

salma3

534 | 73

1.37 ГБ


Начать новую тему Ответить на тему  [ 1 сообщение ] 




Для Мосгорсуда, Роскомнадзора и рекламодателей:: mosgorsud-torrent[собачка]yandex.ru