Торрент файл
скачать торрент магнет ссылка Добавлен: 15 дек 2011, 15:03
Размер: 3.84 ГБ
Сидеров: 301
Личеров: 147
Автор

СообщениеДобавлено: 15 дек 2011, 15:03 

Не в сети
Супермодератор
Аватара пользователя
Дата регистрации:
11 апр 2010, 18:10
Спасибо: 5802 / 7
Сообщения: 56779
Диверсант (4 серии из 4)


Формат: DVDRip-AVC, MKV, H.264, AC3

Режиссер: Андрей Малюков

Жанр: боевик, военный

Продолжительность: 4 х 00:51:30 (=03:25:53)
Год выпуска: 2004

В ролях: Алексей Бардуков (Филатов), Владислав Галкин (Калтыгин Григорий Иванович), Кирилл Плетнёв (Бобриков Алексей Петрович), Александр Лыков (Чех), Вилле Хаапасало (Вилли), Владимир Меньшов (Калязин), Михаил Ефремов (Костенецкий), Андрей Краско (Лукашин), Ксения Кузнецова (Таня), Игорь Ливанов (Богатырев), Екатерина Редникова (Люба), Игорь Лифанов (Свешников)
Описание: Действие фильма происходит в 1942 году. Молодые ребята - выпускники разведшколы - разрабатывают и выполняют сверхсложные операции в тылу врага...



Видео: 718x448 => 765x448 (1.70:0), 25 fps, AVC_h264,2284 kbps, High@L3.1,0,284 bit/pixel
Аудио: 48 kHz, Dolby Digital AC3 (5.1), 384 kbps





General
Unique ID : 224262042328489892328052121480340929238 (0xA8B74C5B7CC94A3D9BC3E27447837AD6)
Complete name : D:\Skazhutin\Диверсант\Диверсант. 2004. 1 серия.mkv
Format : Matroska
File size : 1.02 GiB
Duration : 52mn 12s
Overall bit rate : 2 811 Kbps
Encoded date : UTC 2011-05-05 02:11:12
Writing application : mkvmerge v4.7.0 ('Just Like You Imagined') built on Apr 21 2011 01:13:14
Writing library : libebml v1.2.0 + libmatroska v1.1.0

Video
ID : 1
Format : AVC
Format/Info : Advanced Video Codec
Format profile : High@L3.1
Format settings, CABAC : Yes
Format settings, ReFrames : 12 frames
Format settings, GOP : M=6, N=22
Codec ID : V_MPEG4/ISO/AVC
Duration : 52mn 12s
Bit rate : 2 371 Kbps
Width : 718 pixels
Height : 448 pixels
Display aspect ratio : 16:9
Original display aspect ratio : 16:9
Frame rate : 25.000 fps
Color space : YUV
Chroma subsampling : 4:2:0
Bit depth : 8 bits
Scan type : Progressive
Bits/(Pixel*Frame) : 0.295
Stream size : 885 MiB (84%)
Writing library : x264 core 115 r1947 b5a8ad7
Encoding settings : cabac=1 / ref=12 / deblock=1:-3:-3 / analyse=0x3:0x133 / me=umh / subme=10 / psy=1 / psy_rd=1.15:0.15 / mixed_ref=1 / me_range=24 / chroma_me=1 / trellis=2 / 8x8dct=1 / cqm=0 / deadzone=21,11 / fast_pskip=0 / chroma_qp_offset=-3 / threads=6 / sliced_threads=0 / nr=0 / decimate=1 / interlaced=0 / bluray_compat=0 / constrained_intra=0 / bframes=7 / b_pyramid=2 / b_adapt=2 / b_bias=0 / direct=1 / weightb=1 / open_gop=0 / weightp=2 / keyint=250 / keyint_min=25 / scenecut=40 / intra_refresh=0 / rc=crf / mbtree=0 / crf=18.7 / qcomp=0.65 / qpmin=0 / qpmax=69 / qpstep=4 / ip_ratio=1.40 / pb_ratio=1.30 / aq=1:1.00
Language : Russian
Color primaries : BT.470-6 System B, BT.470-6 System G, BT.601-6 625, BT.1358 625, BT.1700 625 PAL, BT.1700 625 SECAM
Transfer characteristics : BT.470-6 System B, BT.470-6 System G
Matrix coefficients : BT.470-6 System B, BT.470-6 System G, BT.601-6 625, BT.1358 625, BT.1700 625 PAL, BT.1700 625 SECAM, IEC 61966-2-4 601

Audio
ID : 2
Format : AC-3
Format/Info : Audio Coding 3
Mode extension : CM (complete main)
Codec ID : A_AC3
Duration : 52mn 12s
Bit rate mode : Constant
Bit rate : 384 Kbps
Channel(s) : 6 channels
Channel positions : Front: L C R, Side: L R, LFE
Sampling rate : 48.0 KHz
Bit depth : 16 bits
Compression mode : Lossy
Stream size : 143 MiB (14%)
Language : Russian

Menu
00:00:00.000 : en:Chapter 1
00:01:21.000 : en:Chapter 2
00:05:55.800 : en:Chapter 3
00:14:01.800 : en:Chapter 4
00:22:52.800 : en:Chapter 5
00:29:22.800 : en:Chapter 6
00:40:15.600 : en:Chapter 7



General
Unique ID : 213509759750450839191862283699646192895 (0xA0A07BE59AABB2CCAFFEEED5C1015CFF)
Complete name : D:\Skazhutin\Диверсант\Диверсант. 2004. 2 серия.mkv
Format : Matroska
File size : 947 MiB
Duration : 49mn 48s
Overall bit rate : 2 658 Kbps
Encoded date : UTC 2011-05-05 10:03:27
Writing application : mkvmerge v4.7.0 ('Just Like You Imagined') built on Apr 21 2011 01:13:14
Writing library : libebml v1.2.0 + libmatroska v1.1.0

Video
ID : 1
Format : AVC
Format/Info : Advanced Video Codec
Format profile : High@L3.1
Format settings, CABAC : Yes
Format settings, ReFrames : 12 frames
Codec ID : V_MPEG4/ISO/AVC
Duration : 49mn 48s
Bit rate : 2 221 Kbps
Width : 718 pixels
Height : 448 pixels
Display aspect ratio : 16:9
Original display aspect ratio : 16:9
Frame rate : 25.000 fps
Color space : YUV
Chroma subsampling : 4:2:0
Bit depth : 8 bits
Scan type : Progressive
Bits/(Pixel*Frame) : 0.276
Stream size : 791 MiB (84%)
Writing library : x264 core 115 r1947 b5a8ad7
Encoding settings : cabac=1 / ref=12 / deblock=1:-3:-3 / analyse=0x3:0x133 / me=umh / subme=10 / psy=1 / psy_rd=1.15:0.15 / mixed_ref=1 / me_range=24 / chroma_me=1 / trellis=2 / 8x8dct=1 / cqm=0 / deadzone=21,11 / fast_pskip=0 / chroma_qp_offset=-3 / threads=6 / sliced_threads=0 / nr=0 / decimate=1 / interlaced=0 / bluray_compat=0 / constrained_intra=0 / bframes=7 / b_pyramid=2 / b_adapt=2 / b_bias=0 / direct=1 / weightb=1 / open_gop=0 / weightp=2 / keyint=250 / keyint_min=25 / scenecut=40 / intra_refresh=0 / rc=crf / mbtree=0 / crf=18.7 / qcomp=0.65 / qpmin=0 / qpmax=69 / qpstep=4 / ip_ratio=1.40 / pb_ratio=1.30 / aq=1:1.00
Language : Russian
Color primaries : BT.470-6 System B, BT.470-6 System G, BT.601-6 625, BT.1358 625, BT.1700 625 PAL, BT.1700 625 SECAM
Transfer characteristics : BT.470-6 System B, BT.470-6 System G
Matrix coefficients : BT.470-6 System B, BT.470-6 System G, BT.601-6 625, BT.1358 625, BT.1700 625 PAL, BT.1700 625 SECAM, IEC 61966-2-4 601

Audio
ID : 2
Format : AC-3
Format/Info : Audio Coding 3
Mode extension : CM (complete main)
Codec ID : A_AC3
Duration : 49mn 48s
Bit rate mode : Constant
Bit rate : 384 Kbps
Channel(s) : 6 channels
Channel positions : Front: L C R, Side: L R, LFE
Sampling rate : 48.0 KHz
Bit depth : 16 bits
Compression mode : Lossy
Stream size : 137 MiB (14%)
Language : Russian

Menu
00:00:00.000 : en:Chapter 1
00:01:18.640 : en:Chapter 2
00:08:04.640 : en:Chapter 3
00:19:05.240 : en:Chapter 4
00:28:10.320 : en:Chapter 5
00:34:58.040 : en:Chapter 6
00:44:14.960 : en:Chapter 7
00:48:08.440 : en:Chapter 8



General
Unique ID : 177850150340607782505917830120459038487 (0x85CCB169765002549D24E54F56216F17)
Complete name : D:\Skazhutin\Диверсант\Диверсант. 2004. 3 серия.mkv
Format : Matroska
File size : 976 MiB
Duration : 51mn 55s
Overall bit rate : 2 627 Kbps
Encoded date : UTC 2011-05-05 03:42:53
Writing application : mkvmerge v4.7.0 ('Just Like You Imagined') built on Apr 21 2011 01:13:14
Writing library : libebml v1.2.0 + libmatroska v1.1.0

Video
ID : 1
Format : AVC
Format/Info : Advanced Video Codec
Format profile : High@L3.1
Format settings, CABAC : Yes
Format settings, ReFrames : 12 frames
Codec ID : V_MPEG4/ISO/AVC
Duration : 51mn 55s
Bit rate : 2 191 Kbps
Width : 718 pixels
Height : 448 pixels
Display aspect ratio : 16:9
Original display aspect ratio : 16:9
Frame rate : 25.000 fps
Color space : YUV
Chroma subsampling : 4:2:0
Bit depth : 8 bits
Scan type : Progressive
Bits/(Pixel*Frame) : 0.272
Stream size : 814 MiB (83%)
Writing library : x264 core 115 r1947 b5a8ad7
Encoding settings : cabac=1 / ref=12 / deblock=1:-3:-3 / analyse=0x3:0x133 / me=umh / subme=10 / psy=1 / psy_rd=1.15:0.15 / mixed_ref=1 / me_range=24 / chroma_me=1 / trellis=2 / 8x8dct=1 / cqm=0 / deadzone=21,11 / fast_pskip=0 / chroma_qp_offset=-3 / threads=6 / sliced_threads=0 / nr=0 / decimate=1 / interlaced=0 / bluray_compat=0 / constrained_intra=0 / bframes=7 / b_pyramid=2 / b_adapt=2 / b_bias=0 / direct=1 / weightb=1 / open_gop=0 / weightp=2 / keyint=250 / keyint_min=25 / scenecut=40 / intra_refresh=0 / rc=crf / mbtree=0 / crf=18.7 / qcomp=0.65 / qpmin=0 / qpmax=69 / qpstep=4 / ip_ratio=1.40 / pb_ratio=1.30 / aq=1:1.00
Language : Russian
Color primaries : BT.470-6 System B, BT.470-6 System G, BT.601-6 625, BT.1358 625, BT.1700 625 PAL, BT.1700 625 SECAM
Transfer characteristics : BT.470-6 System B, BT.470-6 System G
Matrix coefficients : BT.470-6 System B, BT.470-6 System G, BT.601-6 625, BT.1358 625, BT.1700 625 PAL, BT.1700 625 SECAM, IEC 61966-2-4 601

Audio
ID : 2
Format : AC-3
Format/Info : Audio Coding 3
Mode extension : CM (complete main)
Codec ID : A_AC3
Duration : 51mn 55s
Bit rate mode : Constant
Bit rate : 384 Kbps
Channel(s) : 6 channels
Channel positions : Front: L C R, Side: L R, LFE
Sampling rate : 48.0 KHz
Bit depth : 16 bits
Compression mode : Lossy
Stream size : 143 MiB (15%)
Language : Russian

Menu
00:00:00.000 : en:Chapter 2
00:01:19.320 : en:Chapter 2
00:08:40.680 : en:Chapter 3
00:18:36.680 : en:Chapter 4
00:26:58.960 : en:Chapter 5
00:35:53.560 : en:Chapter 6
00:43:22.240 : en:Chapter 7



General
Unique ID : 189752635374104790111556676684529749652 (0x8EC1073B593F4ED7A9FFC8C2723F4E94)
Complete name : D:\Skazhutin\Диверсант\Диверсант. 2004. 4 серия.mkv
Format : Matroska
File size : 961 MiB
Duration : 51mn 58s
Overall bit rate : 2 585 Kbps
Encoded date : UTC 2011-05-05 03:41:07
Writing application : mkvmerge v4.7.0 ('Just Like You Imagined') built on Apr 21 2011 01:13:14
Writing library : libebml v1.2.0 + libmatroska v1.1.0

Video
ID : 1
Format : AVC
Format/Info : Advanced Video Codec
Format profile : High@L3.1
Format settings, CABAC : Yes
Format settings, ReFrames : 12 frames
Codec ID : V_MPEG4/ISO/AVC
Duration : 51mn 58s
Bit rate : 2 149 Kbps
Width : 718 pixels
Height : 448 pixels
Display aspect ratio : 16:9
Original display aspect ratio : 16:9
Frame rate : 25.000 fps
Color space : YUV
Chroma subsampling : 4:2:0
Bit depth : 8 bits
Scan type : Progressive
Bits/(Pixel*Frame) : 0.267
Stream size : 799 MiB (83%)
Writing library : x264 core 115 r1947 b5a8ad7
Encoding settings : cabac=1 / ref=12 / deblock=1:-3:-3 / analyse=0x3:0x133 / me=umh / subme=10 / psy=1 / psy_rd=1.15:0.15 / mixed_ref=1 / me_range=24 / chroma_me=1 / trellis=2 / 8x8dct=1 / cqm=0 / deadzone=21,11 / fast_pskip=0 / chroma_qp_offset=-3 / threads=6 / sliced_threads=0 / nr=0 / decimate=1 / interlaced=0 / bluray_compat=0 / constrained_intra=0 / bframes=7 / b_pyramid=2 / b_adapt=2 / b_bias=0 / direct=1 / weightb=1 / open_gop=0 / weightp=2 / keyint=250 / keyint_min=25 / scenecut=40 / intra_refresh=0 / rc=crf / mbtree=0 / crf=18.7 / qcomp=0.65 / qpmin=0 / qpmax=69 / qpstep=4 / ip_ratio=1.40 / pb_ratio=1.30 / aq=1:1.00
Language : Russian
Color primaries : BT.470-6 System B, BT.470-6 System G, BT.601-6 625, BT.1358 625, BT.1700 625 PAL, BT.1700 625 SECAM
Transfer characteristics : BT.470-6 System B, BT.470-6 System G
Matrix coefficients : BT.470-6 System B, BT.470-6 System G, BT.601-6 625, BT.1358 625, BT.1700 625 PAL, BT.1700 625 SECAM, IEC 61966-2-4 601

Audio
ID : 2
Format : AC-3
Format/Info : Audio Coding 3
Mode extension : CM (complete main)
Codec ID : A_AC3
Duration : 51mn 58s
Bit rate mode : Constant
Bit rate : 384 Kbps
Channel(s) : 6 channels
Channel positions : Front: L C R, Side: L R, LFE
Sampling rate : 48.0 KHz
Bit depth : 16 bits
Compression mode : Lossy
Stream size : 143 MiB (15%)
Language : Russian

Menu
00:00:00.000 : en:Chapter 1
00:01:20.400 : en:Chapter 2
00:12:22.200 : en:Chapter 3
00:19:05.400 : en:Chapter 4
00:26:07.200 : en:Chapter 5
00:33:36.000 : en:Chapter 6
00:44:12.000 : en:Chapter 7










Поделиться:




реклама партнёра


Вернуться к началу
 Профиль Отправить личное сообщение  
 
   Похожие торренты   Автор   Торрент   Размер 
В этой теме нет новых непрочитанных сообщений. Диверсант 2: Конец войны / Серии: 1-10 из 10 (Игорь Зайцев) [2007, Военный боевик, DVDRip - AVC]

marya111

6 | 5

6.84 ГБ

В этой теме нет новых непрочитанных сообщений. МосГаз [01-08 из 08] (Андрей Малюков) [Детектив, 2012] HDTVRip

Dracon

665 | 138

6.59 ГБ

В этой теме нет новых непрочитанных сообщений. МосГаз [01-08 из 08] (Андрей Малюков) [2012, Детектив, HDTVRip 720p]

Nickolas3435

172 | 33

12.45 ГБ

В этой теме нет новых непрочитанных сообщений. МосГаз [01-08 из 08] (Андрей Малюков) [Детектив, 2012] HDTV 1080i

Dracon

68 | 10

26.08 ГБ

В этой теме нет новых непрочитанных сообщений. МосГаз [01-06 из 08] (Андрей Малюков) [Детектив, 2012] HDTV 1080i

Dracon

В этой теме нет новых непрочитанных сообщений. Григорий Р. / Распутин [01-08 из 08] (Андрей Малюков) [2014, драма, исторический, SATRip]

Nickolas3435

2232 | 126

4.14 ГБ

В этой теме нет новых непрочитанных сообщений. Курсанты [01-10 из 10] (Андрей Кавун) [Драма, военный, 2004] HDTVRip

Dracon

66 | 18

5.37 ГБ


Начать новую тему Ответить на тему  [ 1 сообщение ] 




Для Мосгорсуда, Роскомнадзора и рекламодателей:: mosgorsud-torrent[собачка]yandex.ru