Торрент файл
скачать торрент магнет ссылка Добавлен: 15 дек 2011, 01:12
Размер: 890.19 МБ
Сидеров: 38
Личеров: 9
Автор

СообщениеДобавлено: 15 дек 2011, 01:12 

Не в сети
Супермодератор
Аватара пользователя
Дата регистрации:
11 апр 2010, 18:10
Спасибо: 5801 / 7
Сообщения: 56779
Белый песок

Формат: SATRip, AVI, XviD, MP3
Режиссер: Мурад Алиев, Андрес Пуустусмаа
Жанр: приключения, боевик
Продолжительность: 01:13:41
Год выпуска: 2010

В ролях: Зара Мгоян, Валерий Николаев, Андрей Гуськов, Михаил Ефремов

Описание: Фильм основан на реальных событиях конца 1980-х годов и рассказывает об одной из крупнейших операций по борьбе с международным наркобизнесом. Александр Ветров при выполнении боевого задания в Афганистане попадает в плен. Он еще не знает, что для семьи и друзей он мертв, а для страны - предатель. Ветров использует единственную смертельно опасную возможность вернуться на Родину и соглашается сопровождать караван с товаром своего хозяина. В случае успешного завершения миссии ему обещана свобода. Так к советской границе начинает движение замаскированный груз - огромная партия наркотиков. Ни Али, ни его хозяин не догадываются, сколько претендентов на товар будут "вести" его, пересекая границы, и сколько опасных событий ждет караван в пути. Оказавшись в ситуации "загнанного волка", Ветров пойдет до конца, ему предстоит не раз вступить в схватку, найти настоящего друга и обрести любовь.

Рейтинг на КиноПоиске: отсутствует

Видео: 704x384 (1.83:1), 25 fps, XviD ~1551 kbps avg, 0.23 bit/pixel
Аудио: 44.100 kHz, MPEG Layer 3, 2 ch, ~128.00 kbps avg

General
Complete name: E:\РЕЛИЗЫ\Все релизы 14\belui_pesok_[tfile.ru].avi
Format: AVI
Format/Info: Audio Video Interleave
File size: 890 MiB
Duration: 1h 13mn
Overall bit rate: 1 689 Kbps
Writing library: VirtualDub build 32839/release

Video
ID: 0
Format: MPEG-4 Visual
Format profile: Simple@L1
Format settings, BVOP: No
Format settings, QPel: No
Format settings, GMC: No warppoints
Format settings, Matrix: Default (H.263)
Codec ID: XVID
Codec ID/Hint: XviD
Duration: 1h 13mn
Bit rate: 1 551 Kbps
Width: 704 pixels
Height: 384 pixels
Display aspect ratio: 16:9
Frame rate: 25.000 fps
Color space: YUV
Chroma subsampling: 4:2:0
Bit depth: 8 bits
Scan type: Progressive
Compression mode: Lossy
Bits/(Pixel*Frame): 0.230
Stream size: 818 MiB (92%)
Writing library: Lavc52.84.0

Audio
ID: 1
Format: MPEG Audio
Format version: Version 1
Format profile: Layer 3
Mode: Joint stereo
Mode extension: MS Stereo
Codec ID: 55
Codec ID/Hint: MP3
Duration: 1h 13mn
Bit rate mode: Constant
Bit rate: 128 Kbps
Channel(s): 2 channels
Sampling rate: 44.1 KHz
Compression mode: Lossy
Stream size: 67.5 MiB (8%)
Alignment: Split accross interleaves
Interleave, duration: 40 ms (1.00 video frame)
Interleave, preload duration: 500 ms















Поделиться:




реклама партнёра


Вернуться к началу
 Профиль Отправить личное сообщение  
 
   Похожие торренты   Автор   Торрент   Размер 
В этой теме нет новых непрочитанных сообщений. Дудочка крысолова [01-04 из 04] (Андрес Пуустусмаа) [Детектив, 2015] WEB-DLRip

Dracon

709 | 431

2.34 ГБ

В этой теме нет новых непрочитанных сообщений. Неподсудные [01x01-08 из 08] (Мурад Алиев) [Триллер, 2015] SATRip

Dracon

174 | 28

4.88 ГБ

В этой теме нет новых непрочитанных сообщений. Неподсудные [01-06 из 08] (Мурад Алиев) [Триллер, 2015] HDTVRip

Dracon

25 | 10

3.21 ГБ

В этой теме нет новых непрочитанных сообщений. Неподсудные [01-08 из 08] (Мурад Алиев) [Триллер, 2015] HDTV 1080i

Dracon

333 | 134

20.38 ГБ

В этой теме нет новых непрочитанных сообщений. Неподсудные [01-08 из 08] (Мурад Алиев) [Триллер, 2015] HDTVRip 720p

Dracon

818 | 276

12.45 ГБ

В этой теме нет новых непрочитанных сообщений. Нахлыстовая мушка / Elk Hair Caddis (Питер Смит, Элис Холм, Андрес Броггард, Магнус Моллер) [2010, короткометражка, мультфильм, WEBRip AVC]

Nickolas3435

22 | 17

68.39 МБ

В этой теме нет новых непрочитанных сообщений. Белый медведь / Der Eisbär [боевик, триллер, 1998] DVDRip-AVC, Avo

salma3

7 | 6

1.45 ГБ


Начать новую тему Ответить на тему  [ 1 сообщение ] 




Для Мосгорсуда, Роскомнадзора и рекламодателей:: mosgorsud-torrent[собачка]yandex.ru