Торрент файл
скачать торрент магнет ссылка Добавлен: 13 дек 2011, 18:05
Размер: 699.27 МБ
Сидеров: 19
Личеров: 6
Автор

СообщениеДобавлено: 13 дек 2011, 18:05 

Не в сети
Супермодератор
Аватара пользователя
Дата регистрации:
11 апр 2010, 18:10
Спасибо: 5799 / 7
Сообщения: 56779
Путевой обходчик


Формат: DVDRip-AVC, MKV, H.264, AC3
Режиссер: Игорь Шавлак
Жанр: ужасы, боевик
Продолжительность:01:20:07
Год выпуска: 2007

В ролях:Дмитрий Орлов,Светлана Меткина,Александр Высоковский,Юлия Михайлова,Алексей Дмитриев,Олег Каменщиков,Томас Моцкус,Игорь Шавлак,Олег Морозов,Владимир Косухин.

Описание: Сюжет разворачивается на действующих и давно заброшенных линиях московского метрополитена, руслах подземных рек, куда попадают главные герои — налетчики — спасаясь от милиции, разыскивающей их в связи с дерзким ограблением банка.
Избавившись от преследователей, трое бандитов и трое заложников привлекают внимание подземного жителя — Путевого Обходчика. До конца фильма выжившие не смогут понять, что же их преследует.


Рейтинг:

Видео: 704 x304 (2.35:1),25 fps, AVC (x264) ~ 833 kbps avg, 0.156 bit/pixel
Аудио: 48 kHz, AC3 Dolby Digital,6 channels, ~ 384 kbps avg

General
Уникальный идентификатор: 240701759008116973372043283212822227645 (0xB51578F7FDAD71F397EE6472A471AABD)
Полное имя: C:\Documents and Settings\Admin\Мои документы\Видео\Путевой обходчик [2007].mkv
Формат: Matroska
Размер файла: 699 MiB
Продолжительность: 1h 20mn
Общий поток: 1 220 Kbps
Дата кодирования: UTC 2007-10-30 16:31:56
Программа кодирования: mkvmerge v2.1.0 ('Another Place To Fall') built on Aug 19 2007 13:40:07
Библиотека кодирования: libebml v0.7.7 + libmatroska v0.8.1

Video
Идентификатор: 1
Формат: AVC
Формат/Информация: Advanced Video Codec
Профиль формата:
Параметр CABAC формата: Yes
Параметр ReFrames формата: 16 frames
Идентификатор кодека: V_MPEG4/ISO/AVC
Продолжительность: 1h 20mn
Битрейт: 833 Kbps
Ширина: 704 pixels
Высота: 304 pixels
Соотношение сторон: 2.35:1
Частота кадров: 25.000 fps
Цветовое пространство: YUV
Подвыборка цветности: 4:2:0
Битовая глубина: 8 bits
Тип развёртки: Progressive
Бит/(Пиксели*Кадры): 0.156
Размер потока: 465 MiB (67%)
Заголовок: Путевой обходчик
Библиотека кодирования: x264 core 56 svn-680
Настройки программы: cabac=1 / ref=16 / deblock=1:-2:-1 / analyse=0x3:0x133 / me=umh / subme=7 / brdo=1 / mixed_ref=1 / me_range=16 / chroma_me=1 / trellis=2 / 8x8dct=1 / cqm=0 / deadzone=21,11 / chroma_qp_offset=0 / threads=3 / nr=0 / decimate=0 / mbaff=0 / bframes=3 / b_pyramid=1 / b_adapt=1 / b_bias=0 / direct=3 / wpredb=1 / bime=1 / keyint=250 / keyint_min=25 / scenecut=40(pre) / rc=2pass / bitrate=833 / ratetol=1.0 / rceq='blurCplx^(1-qComp)' / qcomp=0.60 / qpmin=10 / qpmax=51 / qpstep=4 / cplxblur=20.0 / qblur=0.5 / ip_ratio=1.40 / pb_ratio=1.30
Язык: Russian

Audio
Идентификатор: 2
Формат: AC-3
Формат/Информация: Audio Coding 3
Расширение режима: CM (complete main)
Идентификатор кодека: A_AC3
Продолжительность: 1h 20mn
Вид битрейта: Constant
Битрейт: 384 Kbps
Канал(ы): 6 channels
Расположение каналов: Front: L C R, Side: L R, LFE
Частота: 48.0 KHz
Битовая глубина: 16 bits
Метод сжатия: Lossy
Размер потока: 220 MiB (31%)
Язык: Russian



















Поделиться:




реклама партнёра


Вернуться к началу
 Профиль Отправить личное сообщение  
 
   Похожие торренты   Автор   Торрент   Размер 
В этой теме нет новых непрочитанных сообщений. Дело №39 / Case 39 [ужасы, мистика, триллер, 2007] BDRip, Dub [Лицензия]

salma3

140 | 4

1.46 ГБ

В этой теме нет новых непрочитанных сообщений. Метаморфозы / Metamorphosis [Ужасы, мистика, триллер, 2007] DVD5, Mvo+Sub [Лицензия]

salma3

10 | 3

4.23 ГБ

В этой теме нет новых непрочитанных сообщений. Возвращение в дом ночных призраков / Return to House on Haunted Hill [Триллер, ужасы, мистика, 2007] BDRip, Mvo [ТНТ]

salma3

134 | 5

1.45 ГБ

В этой теме нет новых непрочитанных сообщений. 125 км. до Мумбаи / Mumbai 125 KM [ужасы, мистика, 2014] DVDRip, Dvo

salma3

20 | 4

1.43 ГБ

В этой теме нет новых непрочитанных сообщений. Пугало / Scarecrow [Ужасы, мистика, 2013] DVDRip, Avo

salma3

952 | 84

697.63 МБ

В этой теме нет новых непрочитанных сообщений. Заговоренный рис / Nasi Tangas [Мистика, Ужасы, 2014] DVDRip, mvo

Dracon

1 | 4

1.37 ГБ

В этой теме нет новых непрочитанных сообщений. Пицца / Pizza [ужасы, триллер, мистика, 2014] DVDRip, Dvo

salma3

38 | 6

1.29 ГБ


Начать новую тему Ответить на тему  [ 1 сообщение ] 




Для Мосгорсуда, Роскомнадзора и рекламодателей:: mosgorsud-torrent[собачка]yandex.ru