Торрент файл
скачать торрент магнет ссылка Добавлен: 13 дек 2011, 17:57
Размер: 1.65 ГБ
Сидеров: 76
Личеров: 9
Автор

СообщениеДобавлено: 13 дек 2011, 17:57 

Не в сети
Супермодератор
Аватара пользователя
Дата регистрации:
11 апр 2010, 18:10
Спасибо: 5801 / 7
Сообщения: 56779
Золотое сечение




Формат: SATRip, MPEG-TS, AVC, MPEG Audio
Режиссер: Сергей Дебижев

Жанр: приключения
Продолжительность: 01:31:25
Год выпуска: 2009

В ролях: Алексей Серебряков, Наталья Дюфрес, Рената Литвинова, Ксения Раппопорт, Николай Мартон, Виктор Вержбицкий, Михаил Ефремов, Аркадий Волгин, Сергей "Африка" Бугаев

Описание: Герой (Алекс) — модный персонаж шоу-бизнеса. Однажды, во французском журнале, он встречает статью со старинной фотографией. Статья о крупном выигрыше в казино в колониальной Камбодже. На фотографии Герой узнает своего деда, которого все считали погибшим. Герой просит свою бывшую возлюбленную атташе по культуре Франции, все разузнать. Выясняется, что в Париже Героя много лет ждет наследство. Хранителем наследства оказывается масон высокого ранга. Он рассказывает Герою историю деда, отдает ему выигрыш и вовлекает в масонский заговор.

Он излагает Алексу некую систему, по которой мир устроен, как часовой механизм. В нем есть определенное количество религиозных святынь, все они должны занять свои законные места. Только тогда наступит мировая гармония. Дед Героя — человек со сложной Судьбой, будучи в Камбодже в 50-е годы, занимался поиском одной из этих святынь. Это Золотая статуя Будды. Масон предлагает Алексу продолжить его дело. Герой, устав от гламурной суеты, соглашается и отправляется в Камбоджу…


Рейтинг на:

Видео: 720 x 576(1.364), 25 fps, AVC MPEG-TS ~2 142 kbps avg, 0.207 bit/pixel
Аудио: 48 kHz, MPEG Audio Layer 2 , 2 ch, ~256.00 kbps avg

Доп. информация:
премьера (мир)30 июня 2010
премьера (РФ)10 июня 2010, «Аргумент Кино»

General
ID: 22C4
Complete name: J:\Мои релизы\Все релизы 2\Zolotoe_sechenie_[tfile.ru].ts
Format: MPEG-TS
File size: 1.65 GiB
Duration: 1h 31mn
Overall bit rate: 2 577 Kbps

Video
ID: 517 (0x205)
Menu ID: 1 (0x1)
Format: AVC
Format/Info: Advanced Video Codec
Format profile:
Format settings, CABAC: Yes
Format settings, ReFrames: 4 frames
Duration: 1h 31mn
Bit rate: 2 142 Kbps
Width: 720 pixels
Height: 576 pixels
Display aspect ratio: 4/3
Frame rate: 25.000 fps
Standard: Component
Resolution: 24 bits
Colorimetry: 4:2:0
Scan type: Progressive
Bits/(Pixel*Frame): 0.207
Stream size: 1.37 GiB (83%)

Audio
ID: 620 (0x26C)
Menu ID: 1 (0x1)
Format: MPEG Audio
Format version: Version 1
Format profile: Layer 2
Duration: 1h 31mn
Bit rate mode: Constant
Bit rate: 256 Kbps
Channel(s): 2 channels
Sampling rate: 48.0 KHz
Resolution: 16 bits
Video delay: -1s 415ms
Stream size: 167 MiB (10%)











Поделиться:




реклама партнёра


Вернуться к началу
 Профиль Отправить личное сообщение  
 
   Похожие торренты   Автор   Торрент   Размер 
В этой теме нет новых непрочитанных сообщений. Золотое кимоно воина 2 / Il ragazzo dal kimono d'oro 2 [Боевик, приключения, 1988] DVDRip, Avo

salma3

185 | 16

1.38 ГБ

В этой теме нет новых непрочитанных сообщений. Золотое кимоно воина / Il ragazzo dal kimono d'oro [Боевик, приключения, 1987] DVDRip, Avo

salma3

226 | 18

1.38 ГБ

В этой теме нет новых непрочитанных сообщений. Золотое путешествие Синбада / The Golden Voyage of Sinbad [Приключения, 1973] BDRemux 1080p, 2Dub+Mvo+3Avo+Sub

salma3

8 | 3

31.04 ГБ

В этой теме нет новых непрочитанных сообщений. Приключения Жюстины: Частное Дело / Justine: A Private Affair [Эротика, приключения, 1995] SATRip, Mvo

salma3

29 | 9

1.37 ГБ

В этой теме нет новых непрочитанных сообщений. Приключения Жюстины: Сумасшедшая любовь / Justine: Crazy Love [Эротика, приключения, 1995] SATRip, Dvo

salma3

41 | 4

1.37 ГБ

В этой теме нет новых непрочитанных сообщений. Приключения Жюстины: Объект желания / Justine: Object Of Desire [Эротика, приключения, 1996] SATRip, Dvo

salma3

62 | 11

917.45 МБ

В этой теме нет новых непрочитанных сообщений. Приключения Жюстины: Сон в летнюю ночь / Justine: A Midsummer Night's Dream [Эротика, приключения, 1997] SATRip, Dvo

salma3

37 | 5

935.35 МБ


Начать новую тему Ответить на тему  [ 1 сообщение ] 




Для Мосгорсуда, Роскомнадзора и рекламодателей:: mosgorsud-torrent[собачка]yandex.ru