Торрент файл
скачать торрент магнет ссылка Добавлен: 13 дек 2011, 17:46
Размер: 1.45 ГБ
Сидеров: 34
Личеров: 4
Автор

СообщениеДобавлено: 13 дек 2011, 17:46 

Не в сети
Супермодератор
Аватара пользователя
Дата регистрации:
11 апр 2010, 18:10
Спасибо: 5802 / 7
Сообщения: 56779
Кука



Формат: HDRip-AVC, MKV, H.264, AC3
Режиссер: Ярослав Чеважевский
Жанр: драма
Продолжительность: 01:44:37
Год выпуска: 2007

В ролях: Дина Корзун, Павел Деревянко, Дмитрий Дюжев, Александр Половцев, Юрий Колокольников, Марина Голуб, Андрей Ильин, Игорь Савочкин, Анна Ардова, Ирина Купченко, Анастасия Добрынина, Ксения Черноскутова, Татьяна Плетнева, Алевтина Добрынина, Виктор Бунаков, Мария Аманова, Анатолий Горин, Маргарита Шубина, Олег Валкман

Описание: Москвичка Лена в один день потеряла и любимого человека, и успешную карьеру, и поняла, что много лет к чему-то шла, а зашла – в тупик. Она уезжает в Петербург, чтобы изменить свою жизнь, попробовать разобраться с собой. Устроившись по объявлению в районную социальную службу, Лена однажды встречает на почте маленькую девочку Куку с авоськой и стареньким игрушечным медведем. Кука получает бабушкину пенсию, а Лена поражена – такая маленькая девчушка, и совсем одна! Эта девочка не идет у Лены из головы, она начинает за нее волноваться, решает разыскать ее. Но вот что странно: ни в магазинах, ни на почте, ни на детской площадке - никто не знает Куку. Или делают вид, что не знают?..



Видео: 928 x 520 (1:78:1), 23.976 fps, AVC (х264) , ~ 1605 Kbps, 0.139 bit/pixel
Аудио: 48 kHz, AC3 Dolby Digital, 3/2 (L,C,R,l,r) + LFE ch, ~384 kbps


Релиз группы: R.G.NasheKino
Рип: jeenart

General
Unique ID: 224344756298228865678834312245544718159 (0xA8C73A788F64AAA48F5C01B224EB8F4F)
Complete name: F:\Мои релизы\Все релизы 10\Кука.HDRip-AVC.2007.H.264.AC3-R.G.NasheKino-[tfile.ru].mkv
Format: Matroska
File size: 1.45 GiB
Duration: 1h 44mn
Overall bit rate: 1 990 Kbps
Encoded date: UTC 2011-10-08 04:33:56
Writing application: mkvmerge v4.6.0 ('Still Crazy After All These Years') сборка от Apr1 2011 21:01:49
Writing library: libebml v1.2.0 + libmatroska v1.1.0

Video
ID: 1
Format: AVC
Format/Info: Advanced Video Codec
Format profile:
Format settings, CABAC: Yes
Format settings, ReFrames: 4 frames
Codec ID: V_MPEG4/ISO/AVC
Duration: 1h 44mn
Bit rate: 1 605 Kbps
Width: 928 pixels
Height: 520 pixels
Display aspect ratio: 16:9
Frame rate: 23.976 fps
Color space: YUV
Chroma subsampling: 4:2:0
Bit depth: 8 bits
Scan type: Progressive
Bits/(Pixel*Frame): 0.139
Stream size: 1.14 GiB (79%)
Writing library: x264 core 115 r1937 aa21558
Encoding settings: cabac=1 / ref=3 / deblock=1:-1:-1 / analyse=0x3:0x113 / me=hex / subme=7 / psy=1 / psy_rd=1.00:0.10 / mixed_ref=1 / me_range=16 / chroma_me=1 / trellis=1 / 8x8dct=1 / cqm=0 / deadzone=21,11 / fast_pskip=1 / chroma_qp_offset=-3 / threads=6 / sliced_threads=0 / nr=0 / decimate=1 / interlaced=0 / bluray_compat=0 / constrained_intra=0 / bframes=3 / b_pyramid=2 / b_adapt=1 / b_bias=0 / direct=1 / weightb=1 / open_gop=0 / weightp=2 / keyint=250 / keyint_min=23 / scenecut=40 / intra_refresh=0 / rc_lookahead=40 / rc=2pass / mbtree=1 / bitrate=1605 / ratetol=1.0 / qcomp=0.60 / qpmin=0 / qpmax=69 / qpstep=4 / cplxblur=20.0 / qblur=0.5 / ip_ratio=1.40 / aq=1:1.00

Audio
ID: 2
Format: AC-3
Format/Info: Audio Coding 3
Mode extension: CM (complete main)
Codec ID: A_AC3
Duration: 1h 44mn
Bit rate mode: Constant
Bit rate: 384 Kbps
Channel(s): 6 channels
Channel positions: Front: L C R, Side: L R, LFE
Sampling rate: 48.0 KHz
Bit depth: 16 bits
Compression mode: Lossy
Stream size: 287 MiB (19%)
















Поделиться:




реклама партнёра


Вернуться к началу
 Профиль Отправить личное сообщение  
 
   Похожие торренты   Автор   Торрент   Размер 
В этой теме нет новых непрочитанных сообщений. Мама дарагая! (Ярослав Чеважевский) [комедия, 2014] WEB-DLRip

Dracon

822 | 27

1.46 ГБ

В этой теме нет новых непрочитанных сообщений. Мама дарагая! (Ярослав Чеважевский) [комедия, 2014] WEB-DL 1080p

Dracon

40 | 6

3.34 ГБ

В этой теме нет новых непрочитанных сообщений. Мама дарагая! (Ярослав Чеважевский) [комедия, 2014] WEB-DL 720p

Dracon

128 | 7

2.67 ГБ

В этой теме нет новых непрочитанных сообщений. Грэйси / Gracie [Драма, Спорт, 2007] HDRip, Mvo

salma3

0 | 2

1.47 ГБ

В этой теме нет новых непрочитанных сообщений. Рождество / This Christmas [Комедия, драма, 2007] HDRip-AVC, Mvo+Sub

salma3

13 | 2

2.79 ГБ

В этой теме нет новых непрочитанных сообщений. 24 часа / 24 [S07] [Драма, Криминал, Детектив, 2007] HDRip, Mvo [NovaFilm]

salma3

9 | 7

8.36 ГБ

В этой теме нет новых непрочитанных сообщений. Потерянные в Манхеттене / Adrift in Manhattan [Драма, 2007] HDRip, Dvo

salma3

35 | 21

1.46 ГБ


Начать новую тему Ответить на тему  [ 1 сообщение ] 




Для Мосгорсуда, Роскомнадзора и рекламодателей:: mosgorsud-torrent[собачка]yandex.ru