Торрент файл
скачать торрент магнет ссылка Добавлен: 13 дек 2011, 17:15
Размер: 1.47 ГБ
Сидеров: 22
Личеров: 5
Автор

СообщениеДобавлено: 13 дек 2011, 17:15 

Не в сети
Супермодератор
Аватара пользователя
Дата регистрации:
11 апр 2010, 18:10
Спасибо: 5799 / 7
Сообщения: 56779
Обет молчания




Формат: SATRip-AVC, MKV, H.264, MP2
Режиссер: Ольга Доброва-Куликова
Жанр: мелодрама
Продолжительность: 01:26:59
Год выпуска: 2011

В ролях: Ольга Сухарева, Дмитрий Исаев, Тамара Сёмина, Ульяна Похлебаева, Игорь Гудеев, Любовь Матюшина, Сергей Тезов, Мария Добржинская, Стас Шмелев, Ольга Ергина

Описание: Похоронив мать, Ирина уезжает из забытого Богом провинциального городка в Москву. В столице она знакомится с успешным предпринимателем Георгием. Они играют свадьбу. Проходит время, и Ирина начинает понимать, что под маской любящего и заботливого мужа скрывается жестокий человек. Супруг ревнует ее без повода, запрещает общаться со старыми друзьями и даже поднимает на нее руку…



Видео: 716 x 398 (1.799), 25. fps, V_MPEG4/ISO/AVC, , ~2 110 Kbps, 0.296 bit/pixel
Аудио: 48 kHz, MPEG Layer 2, 2 ch, ~256 kbps

General
Unique ID: 183803786039545901799154157463218944387 (0x8A4752509C7D3736B1E60EB6F5DFF983)
Complete name: E:\РЕЛИЗЫ\Все релизы 16\obet_molchaniya_[tfile.ru].mkv
Format: Matroska
File size: 1.47 GiB
Duration: 1h 26mn
Overall bit rate: 2 414 Kbps
Movie name: Обет молчания (2011) SATRip-AVC
Encoded date: UTC 2011-02-15 03:24:46
Writing application: mkvmerge v2.3.0 ('Freak U') built on Sep8 2008 18:32:16
Writing library: libebml v0.7.7 + libmatroska v0.8.1

Video
ID: 1
Format: AVC
Format/Info: Advanced Video Codec
Format profile:
Format settings, CABAC: Yes
Format settings, ReFrames: 4 frames
Codec ID: V_MPEG4/ISO/AVC
Duration: 1h 26mn
Bit rate: 2 110 Kbps
Width: 716 pixels
Height: 398 pixels
Display aspect ratio: 16:9
Frame rate: 25.000 fps
Color space: YUV
Chroma subsampling: 4:2:0
Bit depth: 8 bits
Scan type: Progressive
Bits/(Pixel*Frame): 0.296
Stream size: 1.28 GiB (87%)
Language: Russian

Audio
ID: 2
Format: MPEG Audio
Format version: Version 1
Format profile: Layer 2
Codec ID: A_MPEG/L2
Codec ID/Hint: MP2
Duration: 1h 26mn
Bit rate mode: Constant
Bit rate: 256 Kbps
Channel(s): 2 channels
Sampling rate: 48.0 KHz
Compression mode: Lossy
Delay relative to video: 8ms
Stream size: 159 MiB (11%)
Language: Russian
















Поделиться:




реклама партнёра


Вернуться к началу
 Профиль Отправить личное сообщение  
 
   Похожие торренты   Автор   Торрент   Размер 
В этой теме нет новых непрочитанных сообщений. Идеальная пара (Ольга Доброва-Куликова) [Мелодрама, 2014] SATRip

Dracon

1106 | 52

1.25 ГБ

В этой теме нет новых непрочитанных сообщений. Если любишь - прости (Ольга Доброва-Куликова) [Мелодрама, 2015] SATRip

Dracon

2 | 6

1.37 ГБ

В этой теме нет новых непрочитанных сообщений. Идеальная пара (Ольга Доброва-Куликова) [Мелодрама, 2014] HDTV 1080i

Dracon

197 | 16

5.4 ГБ

В этой теме нет новых непрочитанных сообщений. Если любишь - прости (Ольга Доброва-Куликова) [Мелодрама, 2015] HDTV 1080i

Dracon

19 | 6

6.92 ГБ

В этой теме нет новых непрочитанных сообщений. Долгий путь домой [01-09 из 16] (Ольга Доброва-Куликова) [2014, Драма, криминал, IPTVRip]

Nickolas3435

14 | 7

5.16 ГБ

В этой теме нет новых непрочитанных сообщений. Долгий путь домой [01-16 из 16] (Ольга Доброва-Куликова) [Драма, криминал, 2014] HDTVRip

Dracon

147 | 61

11.35 ГБ

В этой теме нет новых непрочитанных сообщений. Долгий путь домой [01-16 из 16] (Ольга Доброва-Куликова) [Драма, криминал, 2014] HDTV 1080i

Dracon

75 | 53

55.99 ГБ


Начать новую тему Ответить на тему  [ 1 сообщение ] 




Для Мосгорсуда, Роскомнадзора и рекламодателей:: mosgorsud-torrent[собачка]yandex.ru