Торрент файл
скачать торрент магнет ссылка Добавлен: 13 дек 2011, 16:49
Размер: 1.46 ГБ
Сидеров: 7
Личеров: 3
Автор

СообщениеДобавлено: 13 дек 2011, 16:49 

Не в сети
Супермодератор
Аватара пользователя
Дата регистрации:
11 апр 2010, 18:10
Спасибо: 5803 / 7
Сообщения: 56779
Тихая застава


Формат: DVDRip-AVC, MKV, AVC, AC3
Режиссер: Сергей Маховиков

Жанр: драма, военный
Продолжительность: 01:28:25
Год выпуска: 2010

В ролях: Андрей Чадов, Сергей Селин, Игорь Савочкин, Александр Алёшкин,Юрий Коновалов, Азамат Нигманов, Рустам Сагдуллаев, Адель Зайнуллин, Тимур Ефременков, Нино Нинидзе

Описание: Бой на 12-й пограничной заставе Московского погранотряда в Республике Таджикистан произошел во вторник 13 июля 1993 года. Афганские и таджикские боевики попытались прорваться на территорию этой страны. Российские военные 11 часов отражали атаки противника, 25 человек погибло. После этого наши отступили. Позднее в тот же день застава была отбита. По итогам боя шестеро пограничников были удостоены звания Героя Российской Федерации, в том числе четверо — посмертно.



Видео: 720x440@1024x440 (2.327), 25.000 fps, AVC, х264 ~ 1 862 kbps avg, 0.235 bit/pixel
Аудио: 48 kHz, AC3 Dolby Digital, 3/2 (L,C,R,l,r) + LFE ch, ~448.00 kbps avg

General
Complete name: H:\Tihaja_zastava_[tfile.ru].mkv
Format: Matroska
File size: 1.46 GiB
Duration: 1h 28mn
Overall bit rate: 2 357 Kbps
Movie name: Тихая застава (2010) Release by Vaippp
Encoded date: UTC 2011-02-04 04:03:55
Writing application: mkvmerge v4.4.0 ('Die Wiederkehr') сборка от Oct 31 2010 21:52:48
Writing library: libebml v1.0.0 + libmatroska v1.0.0

Video
ID: 1
Format: AVC
Format/Info: Advanced Video Codec
Format profile:
Format settings, CABAC: Yes
Format settings, ReFrames: 7 frames
Muxing mode: Container profile=Unknown@3.1
Codec ID: V_MPEG4/ISO/AVC
Duration: 1h 28mn
Bit rate: 1 862 Kbps
Nominal bit rate: 1 908 Kbps
Width: 720 pixels
Height: 440 pixels
Display aspect ratio: 2.35
Frame rate: 25.000 fps
Resolution: 24 bits
Colorimetry: 4:2:0
Scan type: Progressive
Bits/(Pixel*Frame): 0.235
Stream size: 1.15 GiB (79%)
Title: DVDRip by Vaippp
Writing library: x264 core 112 r1867 22bfd31
Encoding settings: cabac=1 / ref=7 / deblock=1:-2:-1 / analyse=0x3:0x113 / me=umh / subme=9 / psy=1 / psy_rd=1.00:0.10 / mixed_ref=1 / me_range=32 / chroma_me=1 / trellis=1 / 8x8dct=1 / cqm=0 / deadzone=21,11 / fast_pskip=0 / chroma_qp_offset=-3 / threads=4 / sliced_threads=0 / nr=0 / decimate=1 / interlaced=0 / constrained_intra=0 / bframes=6 / b_pyramid=2 / b_adapt=2 / b_bias=0 / direct=3 / weightb=1 / open_gop=0 / weightp=2 / keyint=250 / keyint_min=25 / scenecut=40 / intra_refresh=0 / rc_lookahead=60 / rc=2pass / mbtree=1 / bitrate=1908 / ratetol=1.0 / qcomp=0.60 / qpmin=10 / qpmax=51 / qpstep=4 / cplxblur=20.0 / qblur=0.5 / ip_ratio=1.40 / aq=1:1.00

Audio
ID: 2
Format: AC-3
Format/Info: Audio Coding 3
Codec ID: A_AC3
Duration: 1h 28mn
Bit rate mode: Constant
Bit rate: 448 Kbps
Channel(s): 6 channels
Channel positions: Front: L C R, Surround: L R, LFE
Sampling rate: 48.0 KHz
Stream size: 283 MiB (19%)
Title: Оригинал R5
Language: Russian






















Поделиться:




реклама партнёра


Вернуться к началу
 Профиль Отправить личное сообщение  
 
   Похожие торренты   Автор   Торрент   Размер 
В этой теме нет новых непрочитанных сообщений. Тихая ночь / Silent night [драма, военный, биография, 2002] DVDRip, Avo

salma3

16 | 3

1.37 ГБ

В этой теме нет новых непрочитанных сообщений. Тихая гора / The Silent Mountain [драма, мелодрама, приключения, военный, 2014] HDRip [ИндивИдуалист]

Dracon

581 | 27

1.4 ГБ

В этой теме нет новых непрочитанных сообщений. Битва за Севастополь (Сергей Мокрицкий) [Военный, ВОВ, драма, реальные события, 2015] DVDRip [лицензия]

Dracon

10154 | 199

2.05 ГБ

В этой теме нет новых непрочитанных сообщений. Битва за Севастополь (Сергей Мокрицкий) [Военный, ВОВ, драма, реальные события, 2015] DVDRip [лицензия]

Dracon

7258 | 150

1.46 ГБ

В этой теме нет новых непрочитанных сообщений. Битва за Севастополь (Сергей Мокрицкий) [Военный, ВОВ, драма, реальные события, 2015] DVDRip-AVC [лицензия]

Dracon

315 | 7

2.05 ГБ

В этой теме нет новых непрочитанных сообщений. Фронт (Георгий Васильев, Сергей Васильев) [1943, драма, военный, DVDRip-AVC]

Nickolas3435

18 | 7

1.46 ГБ

В этой теме нет новых непрочитанных сообщений. Битва за Севастополь (Сергей Мокрицкий) [Военный, ВОВ, драма, реальные события, 2015] WEB-DL 720p

Dracon

651 | 18

3.51 ГБ


Начать новую тему Ответить на тему  [ 1 сообщение ] 




Для Мосгорсуда, Роскомнадзора и рекламодателей:: mosgorsud-torrent[собачка]yandex.ru