Торрент файл
скачать торрент магнет ссылка Добавлен: 13 дек 2011, 16:30
Размер: 3.52 ГБ
Сидеров: 13
Личеров: 7
Автор

СообщениеДобавлено: 13 дек 2011, 16:30 

Не в сети
Супермодератор
Аватара пользователя
Дата регистрации:
11 апр 2010, 18:10
Спасибо: 5801 / 7
Сообщения: 56779
Подруги




Формат: SATRemus, MPEG, MPEG2 Video, MPEG Audio
Режиссер: Олег Смольников
Жанр: мелодрама
Продолжительность: 01:27:55
Год выпуска: 2010

В ролях: Алла Юганова, Александр Волков, Янина Соколовская , Игорь Гудеев, Полина Уварова

Описание: Мир и согласие в семье Любы Уваровой рушатся, когда Любу увольняют. Ее муж Павел уже год безуспешно пытается найти работу. Случайная встреча со старой подругой Клавдией только подливает масла в огонь - когда-то Клава и Павел любили друг друга.
Сейчас Клавдия - бизнес-леди и богатая вдова, она настойчиво предлагает Павлу работу в другом городе и всеми силами пытается воскресить былые чувства…


Рейтинг на:

Видео: 720x576 (4:3) 25.00fps 5 359 Kbps, MPEG2 Video,~ 0.517 bit/pixel
Аудио: 48 kHz, MPEG Audio,Layer 2, 2 ch, ~256 kbps

General
Complete name: G:\Мои релизы\Все релизы 4\Podrugi_[tfile.ru].mpg
Format: MPEG-PS
File size: 3.52 GiB
Duration: 1h 27mn
Overall bit rate: 5 729 Kbps
Writing library: Jun 27 2004

Video
ID: 224 (0xE0)
Format: MPEG Video
Format version: Version 2
Format profile: Main@Main
Format settings, Matrix: Default
Duration: 1h 27mn
Bit rate mode: Variable
Bit rate: 5 245 Kbps
Nominal bit rate: 10 000 Kbps
Width: 720 pixels
Height: 576 pixels
Display aspect ratio: 4/3
Frame rate: 25.000 fps
Standard: PAL
Colorimetry: 4:2:0
Scan type: Interlaced
Scan order: Top Field First
Bits/(Pixel*Frame): 0.506
Stream size: 3.22 GiB (92%)
Writing library: Jun 27 2004

Audio
ID: 192 (0xC0)
Format: MPEG Audio
Format version: Version 1
Format profile: Layer 2
Duration: 1h 27mn
Bit rate mode: Constant
Bit rate: 256 Kbps
Channel(s): 2 channels
Sampling rate: 48.0 KHz
Resolution: 16 bits
Video delay: -40ms
Stream size: 161 MiB (4%)









Поделиться:




реклама партнёра


Вернуться к началу
 Профиль Отправить личное сообщение  
 
   Похожие торренты   Автор   Торрент   Размер 
В этой теме нет новых непрочитанных сообщений. Друг моей подруги / L'ami de mon amie [Драма, мелодрама, комедия, 1987] BDRip 1080p, Mvo+Avo

salma3

9 | 2

10.11 ГБ

В этой теме нет новых непрочитанных сообщений. Друг моей подруги / L'ami de mon amie (Эрик Ромер / Eric Rohmer) [1987г., Франция, драма, мелодрама, комедия, BDRip] MVO

Alfredovich

3 | 0

1.45 ГБ

В этой теме нет новых непрочитанных сообщений. Куни для подруги [2013 г., Amateur, CamRip]

Dievas2

3 | 5

123.2 МБ

В этой теме нет новых непрочитанных сообщений. Две худенькие подруги [2016 г., Amateur, Homemade, All Sex, CamRip]

Dievas

13 | 3

136 МБ

В этой теме нет новых непрочитанных сообщений. Весомый аргумент для подруги [2016 г., Amateur, All Sex, Anal, CamRip]

Dievas

0 | 0

113.02 МБ

В этой теме нет новых непрочитанных сообщений. Подруги блондинка с радостью мне отдалась [2014 г., Amateur, CamRip]

Dievas

13 | 3

212.11 МБ

В этой теме нет новых непрочитанных сообщений. Минет подруги [2014 г., Amateur, Blowjob, CamRip 240p]

friizze

3 | 3

99.92 МБ


Начать новую тему Ответить на тему  [ 1 сообщение ] 




Для Мосгорсуда, Роскомнадзора и рекламодателей:: mosgorsud-torrent[собачка]yandex.ru