Торрент файл
скачать торрент магнет ссылка Добавлен: 11 мар 2012, 23:21
Размер: 1.45 ГБ
Сидеров: 8
Личеров: 5
Статус:
Автор

СообщениеДобавлено: 08 дек 2011, 21:43 

Не в сети
Супермодератор
Аватара пользователя
Дата регистрации:
11 апр 2010, 18:10
Спасибо: 5802 / 7
Сообщения: 56779
Информация о фильме
Название: 2 дня
Оригинальное название: 2 дня
Год выхода: 2011
Жанр: драма, комедия
Режиссер: Авдотья Смирнова
В ролях: Ксения Раппопорт, Фёдор Бондарчук, Ирина Розанова, Евгений Муравич, Геннадий Смирнов, Леся Кудряшова, Константин Шелестун

О фильме: Петр Дроздов, высокопоставленный чиновник из Москвы, приезжает в провинциальный музей полузабытого классика русской литературы по просьбе губернатора области, который хочет отнять у музея земельные владения и построить на них новую резиденцию. И поначалу Дроздов поддерживает это решение, но знакомство с Машей, молодым литературоведом, работающей в музее заместителем директора, меняет его взгляд не только на эту проблему, но и вообще на всю его жизнь…




Выпущено: Россия, Art Pictures Studio
Продолжительность: 01:29:30
Озвучивание: Оригинальное [Лицензия]

Сэмпл / Сэмпл

Файл
Качество: BDRip
Формат: AVI (для проигрывания на бытовых плеерах)
Видео кодек: Divx 5
Аудио кодек: AC3
Видео : 1926 Kbps, 23,976 fps, разрешение 720*304 (2.35:1), 0.352 bit/pixel
Аудио 1: 384 Kbps, 48000 Hz, 6 каналов, AC-3 |русский|

General
Complete name: Dva.dhia.BDRip.firebit-films.by.ollehun.avi
Format: AVI
Format/Info: Audio Video Interleave
File size: 1.45 GiB
Duration: 1h 29mn
Overall bit rate: 2 320 Kbps
Writing application: VirtualDubMod 1.5.10.3 | (build 2550/release)
Writing library: VirtualDubMod build 2550/release

Video
ID: 0
Format: MPEG-4 Visual
Format profile: Advanced Simple@L5
Format settings, BVOP: 1
Format settings, QPel: No
Format settings, GMC: No warppoints
Format settings, Matrix: Default (H.263)
Codec ID: DX50
Codec ID/Hint: DivX 5
Duration: 1h 29mn
Bit rate: 1 926 Kbps
Width: 720 pixels
Height: 304 pixels
Display aspect ratio: 2.35:1
Frame rate: 25.000 fps
Color space: YUV
Chroma subsampling: 4:2:0
Bit depth: 8 bits
Scan type: Progressive
Compression mode: Lossy
Bits/(Pixel*Frame): 0.352
Stream size: 1.21 GiB (83%)
Writing library: XviD 58

Audio
ID: 1
Format: AC-3
Format/Info: Audio Coding 3
Mode extension: CM (complete main)
Codec ID: 2000
Duration: 1h 29mn
Bit rate mode: Constant
Bit rate: 384 Kbps
Channel(s): 6 channels
Channel positions: Front: L C R, Side: L R, LFE
Sampling rate: 48.0 KHz
Bit depth: 16 bits
Compression mode: Lossy
Stream size: 246 MiB (17%)
Alignment: Split accross interleaves
Interleave, duration: 40 ms (1.00 video frame)
Interleave, preload duration: 500 ms







реклама партнёра


Вернуться к началу
 Профиль Отправить личное сообщение  
 
   Похожие торренты   Автор   Торрент   Размер 
В этой теме нет новых непрочитанных сообщений. Провинциалка / Hick [Драма, комедия, 2011] BDRip 720p, Mvo+Sub

salma3

42 | 6

5.41 ГБ

В этой теме нет новых непрочитанных сообщений. Неотделимый / Inseparable [Триллер, драма, комедия, 2011] BDRip 1080p, Avo

salma3

36 | 9

7.58 ГБ

В этой теме нет новых непрочитанных сообщений. Мы купили зоопарк / We Bought a Zoo [драма, комедия, семейный, 2011] BDRip, Dub

salma3

56 | 2

1.46 ГБ

В этой теме нет новых непрочитанных сообщений. Ловушка для невесты / The Decoy Bride [комедия, драма, 2011] BDRip 1080p, Mvo+Sub

salma3

2 | 4

4.37 ГБ

В этой теме нет новых непрочитанных сообщений. Мужские надежды / Muzi v nadeji [Комедия, драма, 2011] BDRip 720р, Avo+Sub

salma3

55 | 5

6.99 ГБ

В этой теме нет новых непрочитанных сообщений. Масло в огонь / De l'huile sur le feu [комедия, 2011] BDRip, Dvo [Нтв+]

salma3

5 | 2

1.63 ГБ

В этой теме нет новых непрочитанных сообщений. Счастливчик / Lucky [триллер, комедия, 2011] BDRip 1080p, Dvo+Sub

salma3

27 | 5

5.9 ГБ


Начать новую тему Ответить на тему  [ 1 сообщение ] 




Для Мосгорсуда, Роскомнадзора и рекламодателей:: mosgorsud-torrent[собачка]yandex.ru