Торрент файл
скачать торрент магнет ссылка Добавлен: 29 окт 2011, 13:44
Размер: 6.56 ГБ
Сидеров: 15
Личеров: 6
Статус: (Aleksandr.ru)
Автор

СообщениеДобавлено: 29 окт 2011, 13:44 

Не в сети
Супермодератор
Аватара пользователя
Дата регистрации:
22 май 2010, 12:40
Спасибо: 2027 / 98
Сообщения: 2963
Откуда: Н.Новгород

Информация о фильме
Название: Закрытые пространства
Год выхода: 2008
Жанр: Драма, комедия
Режиссер: Игорь Ворскла, Амурбек Гобашиев
В ролях: Леонид Бичевин, Мария Машкова, Александр Ильин, Григорий Калинин, Олег Макаров, Артем Семакин, Нелли Уварова, Анатолий Узденский, Елена Шевченко, Александр Скляр, Алексей Гаврилов

О фильме:
Молодая девушка Вика привозит по заказу пиццу в квартиру на мансардном этаже. Молодой человек расплачивается за заказ, после чего девушка обнаруживает, что дверь заперта. Парень объявляет о планах сексуального насилия в отношении пленницы и тут же начинает предпринимать попытки реализовать замысел… Отношения между героями, начавшись столь агрессивно, претерпят множество неожиданных трансформаций, вплоть до взаимной симпатии.




Страна: Россия
Продолжительность: 01:34:31
Перевод: не требуется

Файл
Кодек: H.264
Качество: BDRip1080p
Видео: English, 9295 Кбит/сек, 1920*1040 (16:9), в 23,976 кадр/сек, AVC (High@L4.1)
Звук: Russian, 640 Кбит/сек, 48,0 КГц, 16 бит, 6 канала(ов), AC-3
Субтитры: Russian, English (VobSub)


Общее
Уникальный идентификатор: 237232583980626737593313197876063671427 (0xB279556F266867BFADDFCA2F4E729483)
Полное имя: E:торрентZakrytye prostranstva (2008) BDRip1080p.mkv
Формат: Matroska
Размер файла: 6,56 Гбайт
Продолжительность: 1 ч. 34 м.
Общий поток: 9941 Кбит/сек
Дата кодирования: UTC 2011-10-28 12:41:30
Программа кодирования: mkvmerge v5.0.1 ('Es ist Sommer') built on Oct9 2011 11:55:43
Библиотека кодирования: libebml v1.2.2 + libmatroska v1.3.0

Видео
Идентификатор: 1
Формат: AVC
Формат/Информация: Advanced Video Codec
Профиль формата: High@L4.1
Параметр CABAC формата: Да
Параметр ReFrames формата: 4 кадры
Идентификатор кодека: V_MPEG4/ISO/AVC
Продолжительность: 1 ч. 34 м.
Битрейт: 9295 Кбит/сек
Ширина: 1920 пикс.
Высота: 1040 пикс.
Соотношение сторон: 16:9
Частота кадров: 23,976 кадр/сек
Цветовое пространство: YUV
Подвыборка цветности: 4:2:0
Битовая глубина: 8 бит
Тип развёртки: Прогрессивная
Бит/(Пиксели*Кадры): 0.194
Размер потока: 6,01 Гбайт (92%)
Библиотека кодирования: x264 core 119 r2106 07efeb4
Настройки программы: cabac=1 / ref=4 / deblock=1:-2:-2 / analyse=0x3:0x113 / me=esa / subme=9 / psy=1 / psy_rd=1.00:0.20 / mixed_ref=1 / me_range=32 / chroma_me=1 / trellis=2 / 8x8dct=1 / cqm=0 / deadzone=21,11 / fast_pskip=0 / chroma_qp_offset=-3 / threads=6 / sliced_threads=0 / nr=0 / decimate=1 / interlaced=0 / bluray_compat=0 / constrained_intra=0 / bframes=6 / b_pyramid=2 / b_adapt=2 / b_bias=0 / direct=1 / weightb=1 / open_gop=0 / weightp=2 / keyint=250 / keyint_min=23 / scenecut=40 / intra_refresh=0 / rc_lookahead=60 / rc=2pass / mbtree=1 / bitrate=9295 / ratetol=1.0 / qcomp=0.65 / qpmin=10 / qpmax=51 / qpstep=4 / cplxblur=20.0 / qblur=0.5 / ip_ratio=1.40 / aq=2:1.00
Язык: English

Аудио
Идентификатор: 2
Формат: AC-3
Формат/Информация: Audio Coding 3
Расширение режима: CM (complete main)
Идентификатор кодека: A_AC3
Продолжительность: 1 ч. 34 м.
Вид битрейта: Постоянный
Битрейт: 640 Кбит/сек
Канал(ы): 6 канала(ов)
Расположение каналов: Front: L C R, Side: L R, LFE
Частота: 48,0 КГц
Битовая глубина: 16 бит
Метод сжатия: С потерями
Размер потока: 433 Мбайт (6%)
Язык: Russian

Текст #1
Идентификатор: 3
Формат: VobSub
Режим смешивания: zlib
Идентификатор кодека: S_VOBSUB
Идентификатор кодека/Информация: The same subtitle format used on DVDs
Язык: Russian

Текст #2
Идентификатор: 4
Формат: VobSub
Режим смешивания: zlib
Идентификатор кодека: S_VOBSUB
Идентификатор кодека/Информация: The same subtitle format used on DVDs
Язык: English

Меню
00:00:00.000: en:Chapter 01
00:22:24.384: en:Chapter 02
00:33:38.516: en:Chapter 03
00:36:42.742: en:Chapter 04
00:46:33.916: en:Chapter 05
00:51:53.110: en:Chapter 06
00:57:26.401: en:Chapter 07
01:08:18.594: en:Chapter 08
01:34:30.289: en:Chapter 09




Релиз от:




реклама партнёра


Вернуться к началу
 Профиль Отправить личное сообщение  
 
   Похожие торренты   Автор   Торрент   Размер 
В этой теме нет новых непрочитанных сообщений. Шпана 2 / Adulthood [Драма, 2008] BDRip 1080p, Dvo+Sub

salma3

5 | 6

11.93 ГБ

В этой теме нет новых непрочитанных сообщений. Чико / Chiko [драма, криминал, 2008] BDRip 1080p, Dvo+Avo+Sub

salma3

3 | 3

12.79 ГБ

В этой теме нет новых непрочитанных сообщений. Элегия / Elegy [драма, мелодрама, 2008] BDRip 1080p, Dub

salma3

19 | 5

13.76 ГБ

В этой теме нет новых непрочитанных сообщений. Хороший / Good [Драма, военный, 2008] BDRip 1080p, Mvo+Avo+Sub

salma3

15 | 7

6.37 ГБ

В этой теме нет новых непрочитанных сообщений. Провокатор / Incendiary [Триллер, драма, мелодрама, 2008] BDRip 1080p, Dvo

salma3

37 | 7

7.61 ГБ

В этой теме нет новых непрочитанных сообщений. Спасение Бога / Saving God [Драма, криминал, 2008] BDRip 1080p, Mvo

salma3

9 | 4

7.47 ГБ

В этой теме нет новых непрочитанных сообщений. Безумие / The Wackness [Драма, мелодрама, комедия, 2008] BDRip 1080p, Mvo+Dvo+Sub

salma3

202 | 32

7.18 ГБ


Начать новую тему Ответить на тему  [ 1 сообщение ] 




Для Мосгорсуда, Роскомнадзора и рекламодателей:: mosgorsud-torrent[собачка]yandex.ru