Торрент файл
скачать торрент магнет ссылка Добавлен: 06 окт 2011, 21:57
Размер: 1.37 ГБ
Сидеров: 3
Личеров: 4
Статус: (Aleksandr.ru)
Автор

СообщениеДобавлено: 06 окт 2011, 21:57 

Не в сети
Супермодератор
Аватара пользователя
Дата регистрации:
22 май 2010, 12:40
Спасибо: 2027 / 98
Сообщения: 2963
Откуда: Н.Новгород

Информация о фильме
Название: Турандот
Оригинальное название: Турандот
Год выхода: 2010
Жанр:Кинофантазия с песнями, клоунадой и иллюзионом, мюзикл
Режиссер: Вадим Карев
В ролях: Ма Сяоянь, Рашид Исмаилов, Чжанг Жайбо, Анастасия Кузнецова, Евгения Артемьева, Ольга Рамина, Вадим Белявский, Евгений Сверчков и др.

О фильме: Красочный музыкальный фильм по мотивам комедии Карло Гоцци.
Дополнительные материалы: Фильм о съёмках фильма "Турандот"

Выпущено: ПТС.РУ специально для "Технокомпания Хуавей", Россия
Продолжительность: 01:15:04

Файл
Качество: DVDRip
Видео: XviD, 720x576 (anamorphic PAL 16:9) -> 720x405 (1024x576), 25 fps, 2443 kbps, 0.236 bit/(pixel*frame)
Аудио: MP3, 160 kbps CBR, 2.0 chan (Joint Stereo), 48 kHz
Общее
Полное имя: Turandot.DVDRip.2010.avi
Формат: AVI
Формат/Информация: Audio Video Interleave
Размер файла: 1,37 Гбайт
Продолжительность: 1 ч. 15 м.
Общий поток: 2616 Кбит/сек

Видео
Идентификатор: 0
Формат: MPEG-4 Visual
Профиль формата: Simple@L3
Параметр BVOP формата: Нет
Параметр QPel формата: Нет
Параметр GMC формата: Без точки перехода
Параметр матрицы формата: Default (H.263)
Идентификатор кодека: XVID
Идентификатор кодека/Подсказка: XviD
Продолжительность: 1 ч. 15 м.
Битрейт: 2443 Кбит/сек
Ширина: 720 пикселей
Высота: 576 пикселей
Соотношение сторон: 16:9
Частота кадров: 25,000 кадров/сек
Стандарт вещания: PAL
Цветовое пространство: YUV
Субдискретизация насыщенности: 4:2:0
Битовая глубина: 8 бит
Тип развёртки: Прогрессивная
Метод сжатия: С потерями
Бит/(Пиксели*Кадры): 0.236
Размер потока: 1,28 Гбайт (93%)
Библиотека кодирования: XviD 1.1.2 (UTC 2006-11-01)

Аудио
Идентификатор: 1
Формат: MPEG Audio
Версия формата: Version 1
Профиль формата: Layer 3
Режим: Joint stereo
Идентификатор кодека: 55
Идентификатор кодека/Подсказка: MP3
Продолжительность: 1 ч. 15 м.
Вид битрейта: Постоянный
Битрейт: 160 Кбит/сек
Каналы: 2 канала
Частота: 48,0 КГц
Метод сжатия: С потерями
Размер потока: 85,9 Мбайт (6%)
Выравнивание: Разделение по промежуткам
Продолжительность промежутка: 24мс. (0,60 видеокадр)


Скриншоты:




реклама партнёра


Вернуться к началу
 Профиль Отправить личное сообщение  
 
   Похожие торренты   Автор   Торрент   Размер 
В этой теме нет новых непрочитанных сообщений. Инцидент / Incidente [ужасы, 2010] DVDRip, Avo

salma3

3 | 2

725.86 МБ

В этой теме нет новых непрочитанных сообщений. Связной 13 / Filière 13 [Комедия, 2010] DVDRip, Avo

salma3

110 | 8

1.46 ГБ

В этой теме нет новых непрочитанных сообщений. Качели / Hustawka [драма, 2010] DVDRip, Avo

salma3

65 | 5

1.36 ГБ

В этой теме нет новых непрочитанных сообщений. Zorra / Зорра (Leo Salemi, MGR/Red Hot) (2010) DVDRip

Max79

26 | 10

697.77 МБ

В этой теме нет новых непрочитанных сообщений. Интерны [1-203] (2010-2014) DVDRip,SATRip

mnogobukv

122 | 262

20.35 ГБ

В этой теме нет новых непрочитанных сообщений. Фаталь / Fatal [комедия, музыка, 2010] DVDRip, Avo

salma3

69 | 4

1.51 ГБ

В этой теме нет новых непрочитанных сообщений. Веселый призрак / Living Will... [комедия, 2010] DVDRip, Dvo

salma3

37 | 5

1.55 ГБ


Начать новую тему Ответить на тему  [ 1 сообщение ] 




Для Мосгорсуда, Роскомнадзора и рекламодателей:: mosgorsud-torrent[собачка]yandex.ru