Торрент файл
скачать торрент магнет ссылка Добавлен: 03 ноя 2019, 21:09
Размер: 1.46 ГБ
Сидеров: 0
Личеров: 0
Статус: (salma3)
Автор

СообщениеДобавлено: 03 ноя 2019, 21:09 

Не в сети
Супермодератор
Аватара пользователя
Дата регистрации:
15 фев 2012, 16:44
Возраст: 32
Спасибо: 8325 / 2148
Сообщения: 97229
Год выпуска: 2019
Жанр: Комедия, драма
Режиссер: Михаил Морсков

Актеры: Семён Трескунов, Максим Суханов, Ангелина Стречина, Ирина Купченко, Владимир Капустин, Ирина Яковлева, Иван Охлобыстин, Сергей Чонишвили, Сергей Аброскин, Екатерина Маликова

Описание:
В прошлом популярный рок-музыкант Фима влачит жалкое существование, растратив свой талант и предаваясь разгульному образу жизни. Все меняется, когда уроки на гитаре у него начинает брать мальчик Рома, страдающий ДЦП и отчаянно жаждущий завоевать сердце своей одноклассницы Маши.



Производство: Россия / RSS Production
Продолжительность: 01:22:57
Перевод: Не требуется (русский)

Качество: WEB-DLRip
Видео: XviD, 720x272, ~2118 Kbps
Аудио: AC-3, 6 ch, 384 Kbps

Код:
Общее
Полное имя                               : D:\NNM\Волшебник\Volshebnik.2019.WEB-DLRip.avi
Формат                                   : AVI
Формат/Информация                        : Audio Video Interleave
Размер файла                             : 1,46 Гбайт
Продолжительность                        : 1 ч. 22 м.
Общий поток                              : 2512 Кбит/сек
Название фильма                          : Волшебник_2019_WEB-DLRip
Программа кодирования                    : VirtualDubMod 1.5.10.3 | [url=http://www.virtualdub-fr.org]www.virtualdub-fr.org[/url] || (build 2550/release)
Библиотека кодирования                   : VirtualDubMod build 2550/release
Авторское право                          : порошков

Видео
Идентификатор                            : 0
Формат                                   : MPEG-4 Visual
Профиль формата                          : Advanced Simple@L5
Настройки формата                        : BVOP1 / Custom Matrix
Параметр BVOP формата                    : 1
Параметр QPel формата                    : Нет
Параметр GMC формата                     : Без точки перехода
Параметр матрицы формата                 : Выборочная
Идентификатор кодека                     : XVID
Идентификатор кодека/Подсказка           : XviD
Продолжительность                        : 1 ч. 22 м.
Битрейт                                  : 2118 Кбит/сек
Ширина                                   : 720 пикселей
Высота                                   : 272 пикселя
Соотношение сторон                       : 2,647
Частота кадров                           : 25,000 кадров/сек
Цветовое пространство                    : YUV
Субдискретизация насыщенности            : 4:2:0
Битовая глубина                          : 8 бит
Тип развёртки                            : Прогрессивная
Метод сжатия                             : С потерями
Бит/(Пиксели*Кадры)                      : 0.433
Размер потока                            : 1,23 Гбайт (84%)
Библиотека кодирования                   : XviD 73

Аудио
Идентификатор                            : 1
Формат                                   : AC-3
Формат/Информация                        : Audio Coding 3
Коммерческое название                    : Dolby Digital
Идентификатор кодека                     : 2000
Продолжительность                        : 1 ч. 22 м.
Вид битрейта                             : Постоянный
Битрейт                                  : 384 Кбит/сек
Каналы                                   : 6 каналов
ChannelLayout                            : L R C LFE Ls Rs
Частота                                  : 48,0 КГц
Частота кадров                           : 31,250 кадров/сек (1536 SPF)
Битовая глубина                          : 16 бит
Метод сжатия                             : С потерями
Размер потока                            : 228 Мбайт (15%)
Выравнивание                             : Разделение по промежуткам
Продолжительность промежутка             : 40  мс. (1,00 видеокадр)
Время предзагрузки промежутка            : 500  мс.
ServiceKind/String                       : Complete Main


_________________
Проголосуй за трекер Открытый торрент трекер - RUS-MEDIA.ORG

Проголосуй Открытый торрент трекер - RUS-MEDIA.ORG


Вернуться к началу
 Профиль Отправить личное сообщение  
 
   Похожие торренты   Автор   Торрент   Размер 
В этой теме нет новых непрочитанных сообщений. Русское краткое. Выпуск 4 [Драма, комедия, 2019] WEB-DLRip [iTunes]

salma3

0 | 0

1.37 ГБ

В этой теме нет новых непрочитанных сообщений. Наши дамы / Our Ladies [Драма, комедия, 2019] WEB-DLRip, Mvo [Кинопоиск HD]

salma3

0 | 0

1.46 ГБ

В этой теме нет новых непрочитанных сообщений. Стриптизёрши / Hustlers [Комедия, криминал, драма, 2019] WEB-DLRip, Dub [iTunes]

salma3

0 | 0

2.18 ГБ

В этой теме нет новых непрочитанных сообщений. Однажды в… Голливуде / Once Upon a Time... in Hollywood [Драма, комедия, 2019] WEB-DLRip, Dub [iTunes]

salma3

0 | 0

1.46 ГБ

В этой теме нет новых непрочитанных сообщений. Два Папы / The Two Popes [Драма, комедия, биография, 2019] WEB-DLRip, Dub [Пифагор]

salma3

31 | 15

1.46 ГБ

В этой теме нет новых непрочитанных сообщений. Зеровилль / Zeroville [Драма, комедия, 2019] WEB-DLRip, Dub [iTunes] [Локализованная версия]

salma3

1 | 2

1.46 ГБ

В этой теме нет новых непрочитанных сообщений. Однажды в… Голливуде / Once Upon a Time... in Hollywood [Драма, комедия, 2019] WEB-DLRip, Dub [iTunes]

salma3

2 | 3

2.18 ГБ


Начать новую тему Ответить на тему  [ 1 сообщение ] 




Для Мосгорсуда, Роскомнадзора и рекламодателей:: rstracker[собака]yandex.ru
cron