COVID-19 - Последняя информация о коронавирусе на сайте Минздрава




Торрент файл
скачать торрент магнет ссылка Добавлен: 12 июл 2019, 03:36
Размер: 1.37 ГБ
Сидеров: 0
Личеров: 0
Статус: (salma3)
Автор

СообщениеДобавлено: 12 июл 2019, 03:36 

Не в сети
Супермодератор
Аватара пользователя
Дата регистрации:
15 фев 2012, 16:44
Возраст: 31
Спасибо: 8273 / 2148
Сообщения: 96473
Год выпуска: 2019
Жанр: семейный, комедия, детский
Режиссер: Илья Белостоцкий

В ролях: Евгений Олещук, Илья Плясухин, Даша Чистякова, Мирослав Быков, Никита Смирнов, Никита Липунов, Алексей Ломакин, Алина Бабушкина

Описание: Ещё один день, и Джонни Воробьёву исполнится девять лет. Тогда он наконец-то освободится от своего летнего «рабства» в летнем лагере под присмотром несносной старшей сестры и сможет спокойно проводить каникулы с своими друзьями. Но Джонни даёт благородное обещание остановить зловредного Тольку Самохина и его банду рогатых викингов и прекратить их набеги на ребятишек по всей округе...



Страна: Россия
Продолжительность: 01:10:18
Перевод: не требуется (оригинал) iTunes

Качество: WEB-DLRip
Видео: 688x384 (16:9), 24.000 fps, XviD build 73 ~2 390 kbps avg
Аудио: 48.0 kHz, AC3 Dolby Digital, 3/2 (L,C,R,l,r) + LFE ch, ~384 kbps

General
Формат : AVI
Формат/Информация : Audio Video Interleave
Размер файла : 1,37 Гбайт
Продолжительность : 1 ч. 10 м.
Общий поток : 2784 Кбит/сек
Название фильма : Бегство рогатых викингов_2018_WEB-DLRip
Программа кодирования : VirtualDubMod 1.5.10.3 | (build 2550/release)
Авторское право : порошков

Видео
Идентификатор : 0
Формат : MPEG-4 Visual
Профиль формата : Advanced Simple@L5
Настройки формата : BVOP1 / Custom Matrix
Параметр BVOP формата : 1
Параметр QPel формата : Нет
Параметр GMC формата : Без точки перехода
Параметр матрицы формата : Выборочная
Идентификатор кодека : XVID
Идентификатор кодека/Подсказка : XviD
Продолжительность : 1 ч. 10 м.
Битрейт : 2390 Кбит/сек
Ширина : 688 пикселей
Высота : 384 пикселя
Соотношение сторон : 16:9
Частота кадров : 24,000 кадра/сек
Цветовое пространство : YUV
Субдискретизация насыщенности : 4:2:0
Битовая глубина : 8 бит
Тип развёртки : Прогрессивная
Метод сжатия : С потерями
Бит/(Пиксели*Кадры) : 0.377
Размер потока : 1,17 Гбайт (86%)
Библиотека кодирования : XviD 73

Аудио
Идентификатор : 1
Формат : AC-3
Формат/Информация : Audio Coding 3
Коммерческое название : Dolby Digital
Идентификатор кодека : 2000
Продолжительность : 1 ч. 10 м.
Вид битрейта : Постоянный
Битрейт : 384 Кбит/сек
Каналы : 6 каналов
ChannelLayout : L R C LFE Ls Rs
Частота : 48,0 КГц
Частота кадров : 31,250 кадров/сек (1536 SPF)
Битовая глубина : 16 бит
Метод сжатия : С потерями
Размер потока : 193 Мбайт (14%)
Выравнивание : Разделение по промежуткам
Продолжительность промежутка : 42 мс. (1,00 видеокадр)
Время предзагрузки промежутка : 500 мс.

Релиз от: порошков


_________________
Проголосуй за трекер Открытый торрент трекер - RUS-MEDIA.ORG

Проголосуй Открытый торрент трекер - RUS-MEDIA.ORG


Скачать книги и аудио книги через торрент


Вернуться к началу
 Профиль Отправить личное сообщение  
 
   Похожие торренты   Автор   Торрент   Размер 
В этой теме нет новых непрочитанных сообщений. Домовой [Семейный, фэнтези, комедия, 2019] WEB-DLRip [iTunes]

salma3

1111 | 287

1.46 ГБ

В этой теме нет новых непрочитанных сообщений. Спасибо деду за победу [Комедия, семейный, 2019] WEB-DLRip [iTunes]

salma3

6 | 1

1.46 ГБ

В этой теме нет новых непрочитанных сообщений. Спасибо деду за победу [Комедия, семейный, 2019] WEB-DLRip-AVC [iTunes]

salma3

0 | 0

1.46 ГБ

В этой теме нет новых непрочитанных сообщений. Королевские каникулы / Trouble [Мультфильм, комедия, семейный, 2019] WEB-DLRip, Dub [iTunes]

salma3

2960 | 114

1.46 ГБ

В этой теме нет новых непрочитанных сообщений. Эбигейл [приключения, фэнтези, семейный, 2019] WEB-DLRip [iTunes]

salma3

589 | 20

1.46 ГБ

В этой теме нет новых непрочитанных сообщений. Наследники 3 / Descendants 3 [Мюзикл, приключения, семейный, 2019] WEB-DLRip, Dub [iTunes]

salma3

5 | 8

1.46 ГБ

В этой теме нет новых непрочитанных сообщений. Бегство в отношения / The Relationtrip (С. А. Габриэль, Рене Фелис Смит / C.A. Gabriel, Renée Felice Smith) [2017г., комедия, WEB-DLRip] MVO

Alfredovich

0 | 0

1.37 ГБ


Начать новую тему Ответить на тему  [ 1 сообщение ] 




Для Мосгорсуда, Роскомнадзора и рекламодателей:: rstracker[собака]yandex.ru
cron