Оценка торрента
5 0%  0%  [ 0 ]
4 0%  0%  [ 0 ]
3 0%  0%  [ 0 ]
2 0%  0%  [ 0 ]
1 0%  0%  [ 0 ]
5 0%  0%  [ 0 ]
4 0%  0%  [ 0 ]
3 0%  0%  [ 0 ]
2 0%  0%  [ 0 ]
1 0%  0%  [ 0 ]
Всего голосов : 0
Торрент файл
скачать торрент магнет ссылка Добавлен: 04 май 2011, 14:04
Размер: 698.32 МБ
Сидеров: 14
Личеров: 6
Статус: (Aleksandr.ru)
Автор

СообщениеДобавлено: 04 май 2011, 14:04 

Не в сети
Администратор
Дата регистрации:
08 апр 2010, 18:00
Спасибо: 1075 / 220
Сообщения: 17131
Жанр: драма
Год выпуска: 2010
Продолжительность: 01:11:50
Режиссёр: Юрий Быков
В ролях: Денис Шведов, Владислав Толдыков, Алексей Комашко, Сергей Жарков, Константин Стрельников, Владимир Сосновский, Сергей Беляев
Описание: Дикие места. Трое преследуют пожилого охотника и молодого парня. Один — проводник, второй — боец. Незнакомые, чуждые друг другу люди должны вместе выжить и добраться до города. Какова цена жизни? На этот вопрос каждый ответит по-своему.
Релиз-группа:
Качество видео: SATRip
Формат видео: AVI
Видео: 704x384 (1.83:1), 25 fps, XviD MPEG-4 ~1225 kbps avg, 0.18 bit/pixel
Аудио: 48 kHz, MPEG Layer 3, 2 ch, ~120.35 kbps avg
MediaInfo
Общее
Полное имя : C:\Documents and Settings\user\Мои документы\раздачи\Zhitj.2010.XviD.SATRip_TV-Island.avi
Формат : AVI
Формат/Информация : Audio Video Interleave
Размер файла : 698 Мбайт
Продолжительность : 1 ч. 11 м.
Общий поток : 1359 Кбит/сек
Программа кодирования : VirtualDubMod 1.5.10.2 (build 2540/release)
Библиотека кодирования : VirtualDubMod build 2540/release
Видео
Идентификатор : 0
Формат : MPEG-4 Visual
Профиль формата : Advanced Simple@L5
Параметр BVOP формата : 2
Параметр QPel формата : Нет
Параметр GMC формата : Без точки перехода
Параметр матрицы формата : Default (MPEG)
Идентификатор кодека : XVID
Идентификатор кодека/Подсказка : XviD
Продолжительность : 1 ч. 11 м.
Битрейт : 1226 Кбит/сек
Ширина : 704 пикс.
Высота : 384 пикс.
Соотношение сторон : 16:9
Частота кадров : 25,000 кадр/сек
Цветовое пространство : YUV
Подвыборка цветности : 4:2:0
Битовая глубина : 8 бит
Тип развёртки : Прогрессивная
Метод сжатия : С потерями
Бит/(Пиксели*Кадры) : 0.181
Размер потока : 630 Мбайт (90%)
Библиотека кодирования : XviD 58
Аудио
Идентификатор : 1
Формат : MPEG Audio
Версия формата : Version 1
Профиль формата : Layer 3
Режим : Joint stereo
Идентификатор кодека : 55
Идентификатор кодека/Подсказка : MP3
Продолжительность : 1 ч. 11 м.
Вид битрейта : Переменный
Битрейт : 120 Кбит/сек
Номинальный битрейт : 128 Кбит/сек
Канал(ы) : 2 канала(ов)
Частота : 48,0 КГц
Метод сжатия : С потерями
Размер потока : 61,8 Мбайт (9%)
Выравнивание : Соединение по промежуткам
Продолжительность промежутка : 24 мс. (0,60 видеокадр)
Время предзагрузки промежутка : 548 ms
Библиотека кодирования : LAME3.90.
Настройки программы : -m j -V 4 -q 2 -lowpass 17.6 --abr 128
Скриншот c названием фильма
Скриншоты




реклама партнёра


Вернуться к началу
 Профиль Отправить личное сообщение  
 
   Похожие торренты   Автор   Торрент   Размер 
В этой теме нет новых непрочитанных сообщений. Дурак (Юрий Быков) [Драма, 2014] WEB-DLRip [iTunes]

Dracon

1148 | 25

2.05 ГБ

В этой теме нет новых непрочитанных сообщений. Дурак (Юрий Быков) [2014, драма, WEB-DLRip | iTunes]

Nickolas3435

829 | 29

749.04 МБ

В этой теме нет новых непрочитанных сообщений. Дурак (Юрий Быков) [Драма, 2014] WEB-DL 1080p [iTunes]

Dracon

266 | 8

3.75 ГБ

В этой теме нет новых непрочитанных сообщений. В бой идут одни «старики» (Леонид Быков) [Военный, драма, 1973] DVDRip-AVC

Dracon

209 | 8

1.92 ГБ

В этой теме нет новых непрочитанных сообщений. Дмитрий Быков - Лекции о литературе [2010 - 2015, Аудиокнига, лекции, MP3]

Nickolas3435

46 | 17

6.4 ГБ

В этой теме нет новых непрочитанных сообщений. Жить и умереть в Лос-Анджелесе / To Live and Die in L.A. [боевик, триллер, драма, криминал, 1985] HDRip, Avo [Гаврилов]

salma3

24 | 0

1.45 ГБ

В этой теме нет новых непрочитанных сообщений. Жить и умереть в Лос-Анджелесе / To Live and Die in L.A. [боевик, триллер, драма, криминал, 1985] BDRip 1080p, Mvo

salma3

49 | 12

12.39 ГБ


Начать новую тему Ответить на тему  [ 1 сообщение ] 




Для Мосгорсуда, Роскомнадзора и рекламодателей:: mosgorsud-torrent[собачка]yandex.ru