Оценка торрента
5 0%  0%  [ 0 ]
4 0%  0%  [ 0 ]
3 0%  0%  [ 0 ]
2 0%  0%  [ 0 ]
1 0%  0%  [ 0 ]
Всего голосов : 0
Торрент файл
скачать торрент магнет ссылка Добавлен: 24 ноя 2010, 17:40
Размер: 1.37 ГБ
Сидеров: 55
Личеров: 5
Статус: (Aleksandr.ru)
Автор

СообщениеДобавлено: 07 ноя 2010, 17:24 

Не в сети
Аватара пользователя
Дата регистрации:
17 май 2010, 22:58
Возраст: 32
Спасибо: 149 / 5
Сообщения: 556
Откуда: из города металлургов
Олимпиус Инферно


Год выпуска: 2009
Жанр: Боевик, драма
Продолжительность: 89 мин

Режиссер: Игорь Волошин

В ролях:
Полина Филоненко, Дэвид Генри, Вадим Цаллати, Адгур Малия, Елена Храмова, Артур Гургенян, Венера Скверия, Адгур Джения, Сергей Сангулия
Описание:
08.08.08. Молодой энтомолог из США, Майкл, и его подруга, московская журналистка Женя, приезжают в Южную Осетию для съёмок фильма о редком виде бабочек. Но этой же ночью грузинские войска нападают на Южную Осетию. Камеры Майкла снимают начало операции. Наши герои понимают, что в их руках оказались доказательства, которые поставят точку в наступившей информационной войне. Но об этом узнают и грузинские спецслужбы. Чтобы донести миру правду, Майклу и Жене нужно прорваться через оккупированную территорию в разрушенный, но не сломленный Цхинвал...

СЕМПЛ

Качество: DVDRip
Формат: AVI
Видео кодек: XviD
Аудио кодек: АС3
Видео: 1921 kb/s 704x384 (1.83:1) [=11:6] 25.000
Аудио: 256 kb/s (128/ch, stereo) CBR 48000 Hz
Video
ID : 0
Format : MPEG-4 Visual
Format profile : AdvancedSimple@L5
Format settings, BVOP : Yes
Format settings, QPel : No
Format settings, GMC : No warppoints
Format settings, Matrix : Default (MPEG)
Muxing mode : Packed bitstream
Codec ID : XVID
Codec ID/Hint : XviD
Duration : 1mn 5s
Bit rate : 1 918 Kbps
Width : 704 pixels
Height : 384 pixels
Display aspect ratio : 16:9
Frame rate : 25.000 fps
Resolution : 24 bits
Colorimetry : 4:2:0
Scan type : Progressive
Bits/(Pixel*Frame) : 0.284
Stream size : 15.1 MiB (88%)
Writing library : XviD 1.2.1 (UTC 2008-12-04)

Audio
ID : 1
Format : AC-3
Format/Info : Audio Coding 3
Codec ID : 2000
Duration : 1mn 5s
Bit rate mode : Constant
Bit rate : 256 Kbps
Channel(s) : 2 channels
Channel positions : L R
Sampling rate : 48.0 KHz
Video delay : 16ms
Stream size : 2.01 MiB (12%)
Alignment : Split accross interleaves
Interleave, duration : 40 ms (1.01 video frame)
Interleave, preload duration : 500 ms



_________________


Последний раз редактировалось dooc 07 ноя 2010, 19:52, всего редактировалось 3 раз(а).


реклама партнёра


Вернуться к началу
 Профиль Отправить личное сообщение  
 
   Похожие торренты   Автор   Торрент   Размер 
В этой теме нет новых непрочитанных сообщений. Инферно / Inferno [Боевик, 1997] DVDRip, Dvo

salma3

9 | 5

1.37 ГБ

В этой теме нет новых непрочитанных сообщений. Инферно / Inferno [боевик, драма, мелодрама, 1999] BDRip 1080p, Mvo+4Avo

salma3

11 | 4

7.76 ГБ

В этой теме нет новых непрочитанных сообщений. Инферно / Inferno [Драма, 2014] DVDRip, dvo

Dracon

205 | 8

1.6 ГБ

В этой теме нет новых непрочитанных сообщений. Инферно / Out of Inferno [драма, 2013] HDRip, avo

Dracon

54 | 10

1.37 ГБ

В этой теме нет новых непрочитанных сообщений. Инферно / Out of Inferno [драма, 2013] BDRip 720p, Avo

salma3

8 | 2

5.6 ГБ

В этой теме нет новых непрочитанных сообщений. Отель Инферно / Hotel Inferno [ужасы, сплэттер, грайндхаус, 2013] DVDRip, avo

Dracon

5 | 14

1.42 ГБ

В этой теме нет новых непрочитанных сообщений. Инферно / Из преисподней / Out of Inferno [Катастрофа, Драма, 2013] BDRip 1080p, avo [3D-Video]

Dracon

9 | 4

9.87 ГБ


СообщениеДобавлено: 07 ноя 2010, 17:43 

Не в сети
Супермодератор
Аватара пользователя
Дата регистрации:
22 май 2010, 12:40
Спасибо: 2027 / 98
Сообщения: 2963
Откуда: Н.Новгород
Аудио кодек: MP3 или АС3?
И здесь также :unknown:


Вернуться к началу
 Профиль Отправить личное сообщение  
 

СообщениеДобавлено: 07 ноя 2010, 19:47 

Не в сети
Аватара пользователя
Дата регистрации:
17 май 2010, 22:58
Возраст: 32
Спасибо: 149 / 5
Сообщения: 556
Откуда: из города металлургов
всё перепроверил АС-3

_________________


Вернуться к началу
 Профиль Отправить личное сообщение  
 

СообщениеДобавлено: 07 ноя 2010, 20:06 

Не в сети
Супермодератор
Аватара пользователя
Дата регистрации:
11 апр 2010, 18:10
Спасибо: 5801 / 7
Сообщения: 56779
Не типичные параметры для AC3, больше для MP3 подходят. :)


Вернуться к началу
 Профиль Отправить личное сообщение  
 

СообщениеДобавлено: 07 ноя 2010, 20:45 

Не в сети
Аватара пользователя
Дата регистрации:
17 май 2010, 22:58
Возраст: 32
Спасибо: 149 / 5
Сообщения: 556
Откуда: из города металлургов
midia info-- сам проверял

_________________


Вернуться к началу
 Профиль Отправить личное сообщение  
 
Начать новую тему Ответить на тему  [ Сообщений: 5 ] 




Для Мосгорсуда, Роскомнадзора и рекламодателей:: mosgorsud-torrent[собачка]yandex.ru