Торрент файл
скачать торрент магнет ссылка Добавлен: 25 авг 2017, 14:43
Размер: 700.86 МБ
Сидеров: 260
Личеров: 25
Статус: (salma3)
Автор

СообщениеДобавлено: 25 авг 2017, 14:43 

Не в сети
Супермодератор
Аватара пользователя
Дата регистрации:
15 фев 2012, 16:44
Возраст: 28
Спасибо: 6644 / 2146
Сообщения: 45913
Год выхода: 2017
Жанр: Мелодрама
Режиссер: Александр Котт

В ролях: Александр Балуев, Павел Баршак, Вера Глаголева, Катерина Шпица, Дмитрий Горевой, Михаил Горевой, Ольга Лерман, Нина Станиславская

О фильме: В одном из приморских городков живёт удивительный человек Николай со своей семьёй. Он знаменит на всю округу, и если что-то случается с кем-то из жителей, сразу обращаются к нему. Как к высшему судье и надёжному заступнику.
У Николая есть свой бизнес, но известен он не этим. В гостинице, которой владеет Николай, находят приют и убежище все, кто гоним злой волей обстоятельств, интригами завистников и откровенных недругов. И денег за это Николай не берёт, а наоборот - помогает, как может, обустроиться несчастным. За это его и прозвали Ноем, а его гостиницу - ковчегом. Жена Николая Анна - его верный друг, она полностью разделяет его точку зрения на мир и во всём старается ему помочь.



Страна: Россия
Продолжительность: 01:22:56
Перевод: Не Требуется

Файл
Кодек: XviD
Качество: HDTVRip
Видео: 656x368 (1.78:1), 25 fps, XviD build 73 ~1043 kbps avg, 0.17 bit/pixel
Звук: 48 kHz, MPEG Layer 3, 2 ch, ~128.00 kbps avg

General
Complete name : Kovcheg.2017.HDTVRip.ot.Portablius.avi
Format : AVI
Format/Info : Audio Video Interleave
File size : 701 MiB
Duration : 1 h 22 min
Overall bit rate : 1 181 kb/s
Writing application : VirtualDubMod 1.5.10.3 | http://www.virtualdub-fr.org || (build 2550/release)
Writing library : VirtualDubMod build 2550/release

Video
ID : 0
Format : MPEG-4 Visual
Format profile : Advanced Simple@L5
Format settings, BVOP : 1
Format settings, QPel : No
Format settings, GMC : No warppoints
Format settings, Matrix : Custom
Codec ID : XVID
Codec ID/Hint : XviD
Duration : 1 h 22 min
Bit rate : 1 044 kb/s
Width : 656 pixels
Height : 368 pixels
Display aspect ratio : 16:9
Frame rate : 25.000 FPS
Color space : YUV
Chroma subsampling : 4:2:0
Bit depth : 8 bits
Scan type : Progressive
Compression mode : Lossy
Bits/(Pixel*Frame) : 0.173
Stream size : 619 MiB (88%)
Writing library : XviD 73

Audio
ID : 1
Format : MPEG Audio
Format version : Version 1
Format profile : Layer 3
Codec ID : 55
Codec ID/Hint : MP3
Duration : 1 h 22 min
Bit rate mode : Constant
Bit rate : 128 kb/s
Channel(s) : 2 channels
Sampling rate : 48.0 kHz
Compression mode : Lossy
Stream size : 75.9 MiB (11%)
Alignment : Aligned on interleaves
Interleave, duration : 40 ms (1.00 video frame)
Interleave, preload duratio : 504 ms
Writing library : LAME3.99r
Encoding settings : -m s -V 4 -q 2 -lowpass 17 -b 128



_________________
Проголосуй за трекер Открытый торрент трекер - RUS-MEDIA.ORG

Проголосуй Открытый торрент трекер - RUS-MEDIA.ORG



реклама партнёра


Вернуться к началу
 Профиль Отправить личное сообщение  
 
   Похожие торренты   Автор   Торрент   Размер 
В этой теме нет новых непрочитанных сообщений. Ковчег [Мелодрама, 2017] HDTVRip

salma3

558 | 148

1.16 ГБ

В этой теме нет новых непрочитанных сообщений. Ковчег [Мелодрама, 2017] HDTVRip-AVC

salma3

350 | 69

1.37 ГБ

В этой теме нет новых непрочитанных сообщений. Ковчег [Мелодрама, 2017] HDTVRip 720p

salma3

228 | 11

2.14 ГБ

В этой теме нет новых непрочитанных сообщений. Ковчег [Мелодрама, 2017] HDTV 1080i

salma3

110 | 7

3.7 ГБ

В этой теме нет новых непрочитанных сообщений. Ноев ковчег / Noah's Ark [драма, мелодрама, приключения, 1999] DVDRip, Mvo

salma3

64 | 10

2.05 ГБ

В этой теме нет новых непрочитанных сообщений. Ковчег Марка [01-04 из 04] (Игорь Нурисламов) [Детектив, экранизация, 2015] DVB

Dracon

433 | 41

5.65 ГБ

В этой теме нет новых непрочитанных сообщений. Бумеранг [01-02 из 16] [Мелодрама, 2017] HDTVRip

salma3

0 | 0

1.27 ГБ


Начать новую тему Ответить на тему  [ 1 сообщение ] 




Для Мосгорсуда, Роскомнадзора и рекламодателей:: mosgorsud-torrent[собачка]yandex.ru