Торрент файл
скачать торрент магнет ссылка Добавлен: 04 мар 2017, 13:08
Размер: 1.62 ГБ
Сидеров: 195
Личеров: 54
Статус: (salma3)
Автор

СообщениеДобавлено: 04 мар 2017, 13:08 

Не в сети
Супермодератор
Аватара пользователя
Дата регистрации:
15 фев 2012, 16:44
Возраст: 28
Спасибо: 7290 / 2147
Сообщения: 70613
Страна: Россия, Украина
Режиссер: Павел Снисаренко
Жанр: комедия, мелодрама
Продолжительность: 01:16:00
Год выпуска: 2008

В ролях: Анастасия Панина, Сергей Юшкевич, Владимир Симонов, Мария Звонарёва, Сурен Вартанов, Алексей Ошурков, Татьяна Бондаренко (III), Мария Рыщенкова

Описание: Когда-то Олег и Вася были школьными друзьями – не разлей вода. Затем они надолго потеряли друг друга из виду и нечаянно встретились. Олег сделал блестящую карьеру. В сущности. Он достиг в жизни, чего хотел, а теперь ему несколько скучно. К жене, поблекшей за пятнадцать лет, он вполне равнодушен. Олег влюбляется (пожалуй, ему это кажется – надо же развеять скуку). И наш герой решает завести вторую семью. Первую семью он разрушать не хочет: не за что обижать жену Галю. Ведь при своем «бытовом цинизме» в душе он – чувствительный добряк. Вася – во многом антипод Олега. Он не очень приспособлен к сегодняшней жизни. Когда-то мечтавший стать художником, талантливый и ранимый, он вынужден работать на строительстве коттеджей. Семьи у Васи нет. И вот на отделочных работах на очередном «объекте» Вася встречается с хозяином нового дома. Которым оказывается Олег! Радость встречи несколько скомкана неловкостью ситуации. Но Вася и Олег, конечно, оставшись вдвоем, устраивают пирушку, по окончании которой Олег везет Васю… в свой «старый коттедж», который находится в том же поселке! В этом и заключается идея-фикс Олега. Для удобства и экономии он ставит новый дом недалеко от старого. Олег уверен, что так проще – «жить на два дома». Представив Васю – как своего друга детства и модного художника – своей жене Гале, после ужина в «старом доме» Олег отвозит Васю… опять в новый дом. Теперь Олег хочет познакомить Васю со своей юной «невестой» Оленькой, которой собирается показать утром свой подарок — коттедж. С этого момента начинается веселая жизнь.




Формат: HDTVRip-AVC
Видео: 1024x576 (16:9), 25 fps, AVC MPEG-4 (x264), , ~ 2667 kbps avg, 0.181 bit/pixel
Аудио: 48 kHz, AC3 Dolby Digital, 3/2 (L,C,R,l,r) + LFE ch, ~384.00 kbps

Автор релиза – Silverok, первоисточник – Наш Кинороман HD

Общее
Уникальный идентификатор : 22414710336175161884352159648392080993 (0x10DCEA8AFA1C0D21223370BFB192EE61)
Полное имя : D:Belyi.parovoz.2008.HDRVRip.AVC.mkv
Формат : Matroska
Версия формата : Version 2
Размер файла : 1,62 Гбайт
Продолжительность : 1 ч. 16 м.
Общий поток : 3052 Кбит/сек
Дата кодирования : UTC 2017-02-04T07:56:30Z
Программа кодирования : HandBrake 0.10.5 2016021100
Библиотека кодирования : Lavf55.12.0 / Lavf55.12.0

Видео
Идентификатор : 1
Формат : AVC
Формат/Информация : Advanced Video Codec
Профиль формата :
Параметр CABAC формата : Да
Параметр ReFrames формата : 14 кадров
Идентификатор кодека : V_MPEG4/ISO/AVC
Продолжительность : 1 ч. 16 м.
Битрейт : 2667 Кбит/сек
Ширина : 1024 пикселя
Высота : 576 пикселей
Соотношение сторон : 16:9
Режим частоты кадров : Постоянный
Частота кадров : 25,000 кадров/сек
Цветовое пространство : YUV
Субдискретизация насыщенности : 4:2:0
Битовая глубина : 8 бит
Тип развёртки : Прогрессивная
Бит/(Пиксели*Кадры) : 0.181
Размер потока : 1,38 Гбайт (85%)
Библиотека кодирования : x264 core 142 r2479 dd79a61
Настройки программы : cabac=1 / ref=14 / deblock=1:-3:-3 / analyse=0x3:0x113 / me=umh / subme=10 / psy=1 / psy_rd=1.00:0.05 / mixed_ref=1 / me_range=32 / chroma_me=1 / trellis=2 / 8x8dct=1 / cqm=0 / deadzone=21,11 / fast_pskip=1 / chroma_qp_offset=-3 / threads=12 / lookahead_threads=1 / sliced_threads=0 / nr=0 / decimate=0 / interlaced=0 / bluray_compat=0 / constrained_intra=0 / bframes=16 / b_pyramid=2 / b_adapt=1 / b_bias=0 / direct=1 / weightb=1 / open_gop=0 / weightp=2 / keyint=250 / keyint_min=25 / scenecut=40 / intra_refresh=0 / rc_lookahead=40 / rc=2pass / mbtree=1 / bitrate=2667 / ratetol=1.0 / qcomp=0.60 / qpmin=0 / qpmax=69 / qpstep=4 / cplxblur=20.0 / qblur=0.5 / vbv_maxrate=62500 / vbv_bufsize=78125 / nal_hrd=none / filler=0 / ip_ratio=1.40 / aq=1:1.00
Default : Да
Forced : Нет
Цветовой диапазон : Limited
Основные цвета : BT.709
Характеристики трансфера : BT.709
Коэффициенты матрицы : BT.709

Аудио
Идентификатор : 2
Формат : AC-3
Формат/Информация : Audio Coding 3
Расширение режима : CM (complete main)
Параметр Endianness формата : Big
Идентификатор кодека : A_AC3
Продолжительность : 1 ч. 16 м.
Вид битрейта : Постоянный
Битрейт : 384 Кбит/сек
Каналы : 6 каналов
Расположение каналов : Front: L C R, Side: L R, LFE
Частота : 48,0 КГц
Частота кадров : 31,250 кадров/сек (1536 spf)
Битовая глубина : 16 бит
Метод сжатия : С потерями
Задержка видео : -5 мс.
Размер потока : 209 Мбайт (13%)
Заголовок : Surround
Default : Да
Forced : Нет


















_________________
Проголосуй за трекер Открытый торрент трекер - RUS-MEDIA.ORG

Проголосуй Открытый торрент трекер - RUS-MEDIA.ORG


Вернуться к началу
 Профиль Отправить личное сообщение  
 
   Похожие торренты   Автор   Торрент   Размер 
В этой теме нет новых непрочитанных сообщений. Белый плен / Eight Below [Мелодрама, Драма, Приключения, 2006] HDTVRip 720p, Dub [Open Matte]

salma3

75 | 20

4.37 ГБ

В этой теме нет новых непрочитанных сообщений. Черная кошка, белый кот / Crna mačka, beli mačor [мелодрама, комедия, криминал, 1998] WEB-DL 1080p, Mvo

salma3

0 | 2

7.79 ГБ

В этой теме нет новых непрочитанных сообщений. Белый бизон / Белый буйвол / The White Buffalo [Вестерн, 1977] BDRip-AVC, Mvo

salma3

6 | 3

2.33 ГБ

В этой теме нет новых непрочитанных сообщений. Время счастья [мелодрама, 2008] HDTVRip-AVC

salma3

113 | 33

1.91 ГБ

В этой теме нет новых непрочитанных сообщений. Моя цинковая кровать / My Zinc Bed [Мелодрама, драма, 2008] HDTVRip 720p, Mvo

salma3

70 | 36

2 ГБ

В этой теме нет новых непрочитанных сообщений. Бесконечно белый медведь / Infinitely Polar Bear [Драма, комедия, 2014] HDRip, Mvo

Dracon

275 | 5

1.37 ГБ

В этой теме нет новых непрочитанных сообщений. Бесконечно белый медведь / Infinitely Polar Bear [Драма, комедия, 2014] BDRip-AVC, Mvo [Лицензия]

Dracon

296 | 60

2.18 ГБ


Начать новую тему Ответить на тему  [ 1 сообщение ] 




Для Мосгорсуда, Роскомнадзора и рекламодателей:: mosgorsud-torrent[собачка]yandex.ru
cron