Торрент файл
скачать торрент магнет ссылка Добавлен: 17 фев 2017, 13:50
Размер: 1.91 ГБ
Сидеров: 113
Личеров: 33
Статус: (salma3)
Автор

СообщениеДобавлено: 17 фев 2017, 13:50 

Не в сети
Супермодератор
Аватара пользователя
Дата регистрации:
15 фев 2012, 16:44
Возраст: 28
Спасибо: 7290 / 2147
Сообщения: 70480
Страна: Россия, Украина
Режиссер: Дмитрий Сорокин
Жанр: мелодрама
Продолжительность: 01:39:41
Год выпуска: 2008

В ролях: Игорь Костолевский, Елена Великанова, Иван Николаев, Ольга Прокофьева, Елена Мольченко, Мария Болтнева, Александр Вершинин, Тамара Спиричева, Виктор Запорожский, Майя Полянская, Татьяна Аугшкап, Татьяна Рогозина, Константин Спасский

Описание:
Доктор Александр Николаевич Белецкий живет спокойной жизнью затворника. Он разведен, имеет репутацию прекрасного гинеколога и коллекционирует картины. Но это лишь показное, видимое благополучие. Белецкий сбежал от внешнего мира, пытаясь укрыться в коконе иллюзий и тишины. Но в один прекрасный момент его жизнь полностью меняется. Соседка просит врача осмотреть знакомую девушку. Ее зовут Аня, она приехала в Москву поступать в институт, но не прошла по конкурсу. Несчастная провинциалка беременна и просит Белецкого сделать ей аборт. Врач и не подозревает, что отец ребенка Ани – не кто иной, как его собственный сын. Александр Николаевич и представить не мог, сколько сложнейших решений и испытаний ждут его впереди. Но на этом тернистом пути он заново обретет себя, вновь почувствует вкус жизни и даст любви еще один шанс.



Формат: HDTVRip-AVC, MKV, H.264, AC3
Видео: 1024x576 (16:9), 25 fps, AVC MPEG-4 (x264), High@L4, ~ 2306 kbps avg, 0.156 bit/pixel
Аудио: 48 kHz, AC3 Dolby Digital, 3/2 (L,C,R,l,r) + LFE ch, ~384.00 kbps

Автор релиза – Silverok, первоисточник – Наш Кинороман HD

Общее
Уникальный идентификатор : 254751081668206823253882352583527088706 (0xBFA7460E40C5B309C269A72443FBC242)
Полное имя : D:Vremja.schastja.2008.HDTVRip.AVC.mkv
Формат : Matroska
Версия формата : Version 2
Размер файла : 1,91 Гбайт
Продолжительность : 1 ч. 39 м.
Общий поток : 2744 Кбит/сек
Дата кодирования : UTC 2017-02-02T19:00:39Z
Программа кодирования : HandBrake 0.10.5 2016021100
Библиотека кодирования : Lavf55.12.0 / Lavf55.12.0

Видео
Идентификатор : 1
Формат : AVC
Формат/Информация : Advanced Video Codec
Профиль формата :
Параметр CABAC формата : Да
Параметр ReFrames формата : 14 кадров
Идентификатор кодека : V_MPEG4/ISO/AVC
Продолжительность : 1 ч. 39 м.
Битрейт : 2306 Кбит/сек
Ширина : 1024 пикселя
Высота : 576 пикселей
Соотношение сторон : 16:9
Режим частоты кадров : Постоянный
Частота кадров : 25,000 кадров/сек
Цветовое пространство : YUV
Субдискретизация насыщенности : 4:2:0
Битовая глубина : 8 бит
Тип развёртки : Прогрессивная
Бит/(Пиксели*Кадры) : 0.156
Размер потока : 1,61 Гбайт (84%)
Библиотека кодирования : x264 core 142 r2479 dd79a61
Настройки программы : cabac=1 / ref=14 / deblock=1:-3:-3 / analyse=0x3:0x113 / me=umh / subme=10 / psy=1 / psy_rd=1.00:0.05 / mixed_ref=1 / me_range=32 / chroma_me=1 / trellis=2 / 8x8dct=1 / cqm=0 / deadzone=21,11 / fast_pskip=1 / chroma_qp_offset=-3 / threads=12 / lookahead_threads=1 / sliced_threads=0 / nr=0 / decimate=0 / interlaced=0 / bluray_compat=0 / constrained_intra=0 / bframes=16 / b_pyramid=2 / b_adapt=1 / b_bias=0 / direct=1 / weightb=1 / open_gop=0 / weightp=2 / keyint=250 / keyint_min=25 / scenecut=40 / intra_refresh=0 / rc_lookahead=40 / rc=crf / mbtree=1 / crf=20.0 / qcomp=0.60 / qpmin=0 / qpmax=69 / qpstep=4 / vbv_maxrate=62500 / vbv_bufsize=78125 / crf_max=0.0 / nal_hrd=none / filler=0 / ip_ratio=1.40 / aq=1:1.00
Default : Да
Forced : Нет
Цветовой диапазон : Limited
Основные цвета : BT.709
Характеристики трансфера : BT.709
Коэффициенты матрицы : BT.709

Аудио
Идентификатор : 2
Формат : AC-3
Формат/Информация : Audio Coding 3
Расширение режима : CM (complete main)
Параметр Endianness формата : Big
Идентификатор кодека : A_AC3
Продолжительность : 1 ч. 39 м.
Вид битрейта : Постоянный
Битрейт : 384 Кбит/сек
Каналы : 6 каналов
Расположение каналов : Front: L C R, Side: L R, LFE
Частота : 48,0 КГц
Частота кадров : 31,250 кадров/сек (1536 spf)
Битовая глубина : 16 бит
Метод сжатия : С потерями
Задержка видео : -5 мс.
Размер потока : 274 Мбайт (14%)
Заголовок : Surround
Default : Да
Forced : Нет




_________________
Проголосуй за трекер Открытый торрент трекер - RUS-MEDIA.ORG

Проголосуй Открытый торрент трекер - RUS-MEDIA.ORG


Вернуться к началу
 Профиль Отправить личное сообщение  
 
   Похожие торренты   Автор   Торрент   Размер 
В этой теме нет новых непрочитанных сообщений. Время счастья [Мелодрама, 2008] HDTV 1080i

salma3

30 | 15

7.29 ГБ

В этой теме нет новых непрочитанных сообщений. Кузнец моего счастья (Мелодрама, 2016) HDTVRip от Files-x

marya111

418 | 56

1.43 ГБ

В этой теме нет новых непрочитанных сообщений. Кузнец моего счастья [Мелодрама, 2016] SATRip

Dracon

323 | 20

1.37 ГБ

В этой теме нет новых непрочитанных сообщений. Кузнец моего счастья [Мелодрама, 2016] HDTV 1080i

salma3

213 | 81

5.05 ГБ

В этой теме нет новых непрочитанных сообщений. Город счастья, штат Техас / Happy, Texas [мелодрама, комедия, криминал, 1999] WEB-DLRip, Mvo [СТС]

salma3

26 | 10

1.45 ГБ

В этой теме нет новых непрочитанных сообщений. Гриффин и Феникс: На краю счастья / Griffin & Phoenix [Мелодрама, драма, 2006] WEB-DLRip 720p, Dub

salma3

0 | 0

4.13 ГБ

В этой теме нет новых непрочитанных сообщений. Белый паровоз [комедия, мелодрама, 2008] HDTVRip-AVC

salma3

195 | 54

1.62 ГБ


Начать новую тему Ответить на тему  [ 1 сообщение ] 




Для Мосгорсуда, Роскомнадзора и рекламодателей:: mosgorsud-torrent[собачка]yandex.ru
cron