Торрент файл
скачать торрент магнет ссылка Добавлен: 12 фев 2017, 00:41
Размер: 1.43 ГБ
Сидеров: 228
Личеров: 40
Статус: (salma3)
Автор

СообщениеДобавлено: 12 фев 2017, 00:41 

Не в сети
Супермодератор
Аватара пользователя
Дата регистрации:
15 фев 2012, 16:44
Возраст: 28
Спасибо: 7163 / 2147
Сообщения: 61819
Режиссер: Алексей Гордеев
Жанр: комедия, приключения
Продолжительность: 01:40:11
Год выпуска: 2006

В ролях: Николай Мачульский, Мария Гончар, Кирилл Канахин, Аврора, Максим Коновалов, Елена Яковлева, Михаил Ефремов, Александр Баширов, Анатолий Кузнецов, Анастасия Задорожная, Алиса Анненкова

Описание: Молодой провинциал Егор случайно знакомится с телеведущей Ангелиной и отправляется в Москву жениться. Привыкнуть к столичному темпу жизни Егору непросто. Все знания о мире ограничиваются у Егора тем, что он узнал в родной тайге, и тем, что рассказал ему единственный родственник - старый дед-охотник. Но пройдя испытание испорченной столицей, Егору предстоит и встретить настоящyю любовь, и узнать, что такое секс.



Формат: HDTVRip-AVC, MKV, H.264, AC3
Видео: 720x384, (1.85:1), 25 fps, AVC MPEG-4 (x264), High@L4, ~ 1856 kbps avg, 0.269 bit/pixel
Аудио: 48 kHz, AC3, 2/0 (L,R) ch, ~192 kbps

Общее
Уникальный идентификатор : 203118959142168092980682799594690891936 (0x98CF49DF9F8000FCA9AB9C0202A4D0A0)
Полное имя : C:\Pro.SeX.2006.HDTVRip(AVC).mkv
Формат : Matroska
Версия формата : Version 2
Размер файла : 1,43 Гбайт
Продолжительность : 1 ч. 40 м.
Общий поток : 2050 Кбит/сек
Дата кодирования : UTC 2017-02-09 16:25:04
Программа кодирования : mkvmerge v7.8.0 ('River Man') 32bit built on Apr 3 2015 12:11:22
Библиотека кодирования : libebml v1.3.1 + libmatroska v1.4.2

Видео
Идентификатор : 1
Формат : AVC
Формат/Информация : Advanced Video Codec
Профиль формата :
Параметр CABAC формата : Да
Параметр ReFrames формата : 16 кадров
Идентификатор кодека : V_MPEG4/ISO/AVC
Продолжительность : 1 ч. 40 м.
Битрейт : 1856 Кбит/сек
Ширина : 720 пикселей
Высота : 384 пикселя
Соотношение сторон : 1,85:1
Режим частоты кадров : Постоянный
Частота кадров : 25,000 кадров/сек
Цветовое пространство : YUV
Субдискретизация насыщенности : 4:2:0
Битовая глубина : 8 бит
Тип развёртки : Прогрессивная
Бит/(Пиксели*Кадры) : 0.269
Размер потока : 1,27 Гбайт (89%)
Библиотека кодирования : x264 core 146 r2538 121396c
Настройки программы : cabac=1 / ref=16 / deblock=1:-3:-3 / analyse=0x3:0x113 / me=umh / subme=11 / psy=1 / psy_rd=1.00:0.00 / mixed_ref=1 / me_range=48 / chroma_me=1 / trellis=2 / 8x8dct=1 / cqm=0 / deadzone=21,11 / fast_pskip=0 / chroma_qp_offset=-2 / threads=6 / lookahead_threads=1 / sliced_threads=0 / nr=0 / decimate=0 / interlaced=0 / bluray_compat=0 / constrained_intra=0 / bframes=16 / b_pyramid=2 / b_adapt=2 / b_bias=0 / direct=3 / weightb=1 / open_gop=1 / weightp=2 / keyint=240 / keyint_min=23 / scenecut=40 / intra_refresh=0 / rc_lookahead=40 / rc=2pass / mbtree=1 / bitrate=1856 / ratetol=1.0 / qcomp=0.60 / qpmin=0 / qpmax=69 / qpstep=4 / cplxblur=20.0 / qblur=0.5 / vbv_maxrate=14000 / vbv_bufsize=14000 / nal_hrd=none / filler=0 / ip_ratio=1.40 / aq=1:1.10
Default : Да
Forced : Нет

Аудио
Идентификатор : 2
Формат : MPEG Audio
Версия формата : Version 1
Профиль формата : Layer 2
Идентификатор кодека : A_MPEG/L2
Идентификатор кодека/Подсказка : MP2
Продолжительность : 1 ч. 40 м.
Вид битрейта : Постоянный
Битрейт : 192 Кбит/сек
Каналы : 2 канала
Частота : 48,0 КГц
Метод сжатия : С потерями
Размер потока : 138 Мбайт (9%)
Язык : Russian
Default : Да
Forced : Нет




_________________
Проголосуй за трекер Открытый торрент трекер - RUS-MEDIA.ORG

Проголосуй Открытый торрент трекер - RUS-MEDIA.ORG


Вернуться к началу
 Профиль Отправить личное сообщение  
 
   Похожие торренты   Автор   Торрент   Размер 
В этой теме нет новых непрочитанных сообщений. Просто секс? / Случайный секс? / Casual Sex? [Комедия, 1988] WEB-DL 720p, Mvo

salma3

71 | 30

2.78 ГБ

В этой теме нет новых непрочитанных сообщений. Секс в сети [мелодрама, 2010] HDTVRip

salma3

330 | 39

1.34 ГБ

В этой теме нет новых непрочитанных сообщений. Белый плен / Eight Below [Мелодрама, Драма, Приключения, 2006] HDTVRip 720p, Dub [Open Matte]

salma3

75 | 20

4.37 ГБ

В этой теме нет новых непрочитанных сообщений. Sexboy Plus Besoin de Sextoy / Секс мальчик и секс-игрушки (Oliver Sweet, FFQ \ Sweet prod.) [2014 г., All Sex, Anal, Oral, Blowjob, WEB-DL]

max77777

7 | 2

1.4 ГБ

В этой теме нет новых непрочитанных сообщений. Секс ради выживания / Survival Island / Three [Триллер, драма, приключения, 2005] WEB-DL 1080p, Dub

salma3

170 | 175

10.87 ГБ

В этой теме нет новых непрочитанных сообщений. Смывайся / Flushed Away [Мультфильм, комедия, приключения, 2006] WEB-DLRip-AVC, Dub

salma3

0 | 0

746.6 МБ

В этой теме нет новых непрочитанных сообщений. Секс ради выживания / Survival Island / Three [Триллер, драма, приключения, 2005] WEB-DLRip 720p, Dub

salma3

0 | 0

6.92 ГБ


Начать новую тему Ответить на тему  [ 1 сообщение ] 




Для Мосгорсуда, Роскомнадзора и рекламодателей:: mosgorsud-torrent[собачка]yandex.ru
cron