Торрент файл
скачать торрент магнет ссылка Добавлен: 30 янв 2017, 19:37
Размер: 745.84 МБ
Сидеров: 140
Личеров: 21
Автор

СообщениеДобавлено: 30 янв 2017, 19:37 

Не в сети
Дата регистрации:
28 сен 2016, 18:10
Спасибо: 231 / 0
Сообщения: 1989
Страна: Россия
Производство: ООО «Кинопрограмма ХХI век»
Жанр: детский, приключения, семейный
Год выпуска: 2015
Продолжительность: 01:39:14
Перевод: Не требуется
Cубтитры: нет
Оригинальная аудиодорожка: русский
Режиссер: Александр Карпиловский
В ролях:
Семён Трескунов, Егор Клинаев, Анфиса Вистингаузен, Василий Мищенко, Марианна Шульц, Тимофей Трибунцев, Екатерина Кузнецова (IV), Сергей Баталов, Михаил Занадворов, Илья Ермолов, Софико Квирквелия...
Полный список актёров
Описание:
Прошло два года. Наши герои выросли. Димка, Мишка и Лена едут в пионерский лагерь на море. Вместе с ними любимая собака Савва. В лагере их ждут необыкновенные приключения, сокровища, дуэли, пещеры и многое другое. И, конечно, первая любовь с настоящими шекспировскими страстями.






Источник: WEB-DL 1080p
Качество видео: WEB-DLRip
Формат видео: AVI
Видео: 688x288 (2,35:1), 25 fps, XviD ~ 908 kbps avg, 0.183 bit/pixel
Аудио: 48 kHz, MP3 2.0, 128 kbps
Раздача от:
Общее
Полное имя : Chastnoe.pionerskoe-2.2015.WEB-DLRip-745_[New-team]_by_AVP_Studio.avi
Формат : AVI
Формат/Информация : Audio Video Interleave
Размер файла : 746 Мбайт
Продолжительность : 1 ч. 39 м.
Общий поток : 1046 Кбит/сек
Программа кодирования : VirtualDubMod 1.5.10.3 | www.virtualdub-fr.org || (build 2550/release)
Библиотека кодирования : VirtualDubMod build 2550/release
Видео
Идентификатор : 0
Формат : MPEG-4 Visual
Профиль формата : Advanced Simple@L5
Параметр BVOP формата : 1
Параметр QPel формата : Нет
Параметр GMC формата : Без точки перехода
Параметр матрицы формата : Выборочная
Идентификатор кодека : XVID
Идентификатор кодека/Подсказка : XviD
Продолжительность : 1 ч. 39 м.
Битрейт : 908 Кбит/сек
Ширина : 688 пикселей
Высота : 288 пикселей
Соотношение сторон : 2,40:1
Частота кадров : 25,000 кадров/сек
Цветовое пространство : YUV
Субдискретизация насыщенности : 4:2:0
Битовая глубина : 8 бит
Тип развёртки : Прогрессивная
Метод сжатия : С потерями
Бит/(Пиксели*Кадры) : 0.183
Размер потока : 648 Мбайт (87%)
Библиотека кодирования : XviD 73
Аудио
Идентификатор : 1
Формат : MPEG Audio
Версия формата : Version 1
Профиль формата : Layer 3
Идентификатор кодека : 55
Идентификатор кодека/Подсказка : MP3
Продолжительность : 1 ч. 39 м.
Вид битрейта : Постоянный
Битрейт : 128 Кбит/сек
Каналы : 2 канала
Частота : 48,0 КГц
Метод сжатия : С потерями
Размер потока : 91,3 Мбайт (12%)
Выравнивание : Соединение по промежуткам
Продолжительность промежутка : 40 мс. (1,00 видеокадр)
Время предзагрузки промежутка : 504 мс.
Библиотека кодирования : LAME3.99r
Настройки программы : -m s -V 4 -q 2 -lowpass 17 -b 128





Скачать книги и аудио книги через торрент


Вернуться к началу
 Профиль Отправить личное сообщение  
 
   Похожие торренты   Автор   Торрент   Размер 
В этой теме нет новых непрочитанных сообщений. Частное пионерское 2 (2015) WEB-DLRip от New-Team

marya111

150 | 15

1.09 ГБ

В этой теме нет новых непрочитанных сообщений. Частное пионерское 2 (2015) WEB-DLRip-AVC от New-Team

marya111

57 | 1

1.45 ГБ

В этой теме нет новых непрочитанных сообщений. Частное пионерское 2 (2015) WEB-DLRip 720p от New-Team

marya111

446 | 23

2.17 ГБ

В этой теме нет новых непрочитанных сообщений. Частное пионерское 2 [детский, приключения, семейный, 2015] WEB-DLRip

salma3

308 | 71

1.46 ГБ

В этой теме нет новых непрочитанных сообщений. Частное пионерское 2 (2015) HDRip от Scarabey | iTunes

marya111

203 | 15

1.45 ГБ

В этой теме нет новых непрочитанных сообщений. Частное пионерское 2 [приключения, семейный, 2015] DVB

salma3

676 | 62

1.26 ГБ

В этой теме нет новых непрочитанных сообщений. Частное пионерское (2013) HDTVRip от Scarabey

marya111

122 | 10

1.45 ГБ


Начать новую тему Ответить на тему  [ 1 сообщение ] 




Для Мосгорсуда, Роскомнадзора и рекламодателей:: mosgorsud-torrent[собачка]yandex.ru
cron