Торрент файл
скачать торрент магнет ссылка Добавлен: 25 янв 2017, 12:37
Размер: 2.9 ГБ
Сидеров: 612
Личеров: 130
Статус: (salma3)
Автор

СообщениеДобавлено: 25 янв 2017, 12:37 

Не в сети
Супермодератор
Аватара пользователя
Дата регистрации:
15 фев 2012, 16:44
Возраст: 28
Спасибо: 7205 / 2147
Сообщения: 65568
Формат: WEB-DL 720p, MKV, H.264, AC3
Режиссер: Максим Демченко
Жанр: комедия, семейный, детский
Продолжительность: 01:34:41
Год выпуска: 2016

В ролях: Анна Ковальчук, Сергей Маркеев, Диана Милютина, Виталий Коваленко, Юрий Ицков, Юлия Кудояр, Дмитрий Лысенков, Андрей Пынзару, Варя Расторгина

Описание: Ура! Зимние каникулы! Влюбленный в первую красавицу школы шестиклассник Паша отправляется с семьей на горнолыжный курорт. На уютной турбазе он встречает девушку своей мечты и оказывается в эпицентре криминальной истории о похищении старинного ожерелья царицы Тамары… Развязка этого закрученного детектива наступит под бой курантов в самый канун Нового года.




Видео: 1280@960x536 (2.40:1), 25 fps, AVC MPEG-4 (x264), , ~ 3917 kbps avg, 0.305 bit/pixel
Аудио: 48 kHz, AC3 Dolby Digital, 3/2 (L,C,R,l,r) + LFE ch, ~384.00 kbps
Общее
Уникальный идентификатор : 177924590088142023005005376560331435062 (0x85DB07932B0BACC5A9A0ED03D3FF2C36)
Полное имя : C:\Yra.Kanikyli.2016.O.720p.WEB-DL.mkv
Формат : Matroska
Версия формата : Version 2
Размер файла : 2,90 Гбайт
Продолжительность : 1 ч. 34 м.
Общий поток : 4389 Кбит/сек
Название фильма : Rustorrents.info
Дата кодирования : UTC 2017-01-24 14:37:50
Программа кодирования : mkvmerge v5.8.0 ('No Sleep / Pillow') built on Sep 2 2012 15:37:04
Библиотека кодирования : libebml v1.2.3 + libmatroska v1.3.0

Видео
Идентификатор : 1
Формат : AVC
Формат/Информация : Advanced Video Codec
Профиль формата :
Параметр CABAC формата : Нет
Параметр ReFrames формата : 2 кадра
Режим смешивания : Header stripping
Идентификатор кодека : V_MPEG4/ISO/AVC
Продолжительность : 1 ч. 34 м.
Битрейт : 3917 Кбит/сек
Ширина : 960 пикселей
Высота : 536 пикселей
Соотношение сторон : 2,40:1
Режим частоты кадров : Постоянный
Частота кадров : 25,000 кадров/сек
Цветовое пространство : YUV
Субдискретизация насыщенности : 4:2:0
Битовая глубина : 8 бит
Тип развёртки : Прогрессивная
Бит/(Пиксели*Кадры) : 0.305
Размер потока : 2,59 Гбайт (89%)
Заголовок : Rustorrents.info
Язык : English
Default : Да
Forced : Нет
Цветовой диапазон : Limited
Основные цвета : BT.709
Характеристики трансфера : BT.709
Коэффициенты матрицы : BT.709

Аудио
Идентификатор : 2
Формат : AC-3
Формат/Информация : Audio Coding 3
Расширение режима : CM (complete main)
Параметр Endianness формата : Big
Режим смешивания : Header stripping
Идентификатор кодека : A_AC3
Продолжительность : 1 ч. 34 м.
Вид битрейта : Постоянный
Битрейт : 384 Кбит/сек
Каналы : 6 каналов
Расположение каналов : Front: L C R, Side: L R, LFE
Частота : 48,0 КГц
Частота кадров : 31,250 кадров/сек (1536 spf)
Битовая глубина : 16 бит
Метод сжатия : С потерями
Размер потока : 260 Мбайт (9%)
Заголовок : Rustorrents.info
Язык : Russian
Default : Да
Forced : Да

Меню
00:00:00.000 : en:Глава 1
00:05:01.320 : en:Глава 2
00:12:33.240 : en:Глава 3
00:21:09.840 : en:Глава 4
00:28:38.720 : en:Глава 5
00:35:21.319 : en:Глава 6
00:42:29.438 : en:Глава 7
00:51:30.918 : en:Глава 8
00:58:00.557 : en:Глава 9
01:04:22.797 : en:Глава 10
01:11:18.637 : en:Глава 11
01:16:15.756 : en:Глава 12
01:21:06.155 : en:Глава 13
01:25:55.075 : en:Глава 14
01:30:32.354 : en:Глава 15




_________________
Проголосуй за трекер Открытый торрент трекер - RUS-MEDIA.ORG

Проголосуй Открытый торрент трекер - RUS-MEDIA.ORG


Вернуться к началу
 Профиль Отправить личное сообщение  
 
   Похожие торренты   Автор   Торрент   Размер 
В этой теме нет новых непрочитанных сообщений. Ура! Каникулы! [комедия, семейный, детский. 2016] WEB-DLRip [iTunes]

salma3

4217 | 596

1.37 ГБ

В этой теме нет новых непрочитанных сообщений. Опасные каникулы [приключения, детектив, детский, семейный, комедия, 2016] WEB-DLRip-AVC

salma3

298 | 33

1.35 ГБ

В этой теме нет новых непрочитанных сообщений. Опасные каникулы [Приключения, семейный, комедия, 2016] WEB-DL 720p [iTunes]

salma3

693 | 86

2.34 ГБ

В этой теме нет новых непрочитанных сообщений. Крякнутые каникулы (мультфильм, комедия, приключения, семейный, 2016) BDRip 720p от Leonardo

marya111

145 | 34

5.71 ГБ

В этой теме нет новых непрочитанных сообщений. Барбоскины [001-170] (мультфильм, детский, семейный, 2011-2016) WEB-DLRip 720p от ExKinoRay

marya111

23 | 34

10.16 ГБ

В этой теме нет новых непрочитанных сообщений. Опасные каникулы [приключения, семейный, 2016] WEB-DLRip

salma3

276 | 17

1.16 ГБ

В этой теме нет новых непрочитанных сообщений. Зверополис / Zootopia (Мультфильм, полнометражный, детский, семейный, комедия, приключения, 2016) BDRip-AVC от MediaClub | D, P, А

marya111

38 | 2

3.11 ГБ


Начать новую тему Ответить на тему  [ 1 сообщение ] 




Для Мосгорсуда, Роскомнадзора и рекламодателей:: mosgorsud-torrent[собачка]yandex.ru
cron