Торрент файл
скачать торрент магнет ссылка Добавлен: 24 янв 2017, 21:36
Размер: 744.25 МБ
Сидеров: 547
Личеров: 55
Статус: (salma3)
Автор

СообщениеДобавлено: 24 янв 2017, 21:36 

Не в сети
Супермодератор
Аватара пользователя
Дата регистрации:
15 фев 2012, 16:44
Возраст: 30
Спасибо: 8131 / 2147
Сообщения: 94786
Год выхода: 2016
Жанр: Комедия
Режиссер: Дмитрий Суворов

В ролях: Светлана Ходченкова, Валентина Мазунина, Екатерина Вилкова, Ольга Кузьмина, Арарат Кещян, Роман Юнусов, Илья Любимов, Антон Макарский, Ян Цапник, Дмитрий Хрусталёв, Пётр Романов, Яна Кошкина, Александр Соколовский, Денис Косяков, Влад Канопка, Данила Якушев, Евгений Кулик (II), Полина Филоненко, Мария Фелянина

О фильме:
Три подруги Вика, Света и Даша бросают свои дела и едут в Сочи на девичник к бывшей однокласснице Кате, чтобы как следует там оторваться. Веселье в разгаре и шампанское льется рекой, но тут случается то, чего никто не мог ожидать — в самый разгар праздника Катя застает своего жениха с пышногрудой блондинкой. Невеста в истерике. Она запирается в номере и говорит, что готова выйти за первого встречного, лишь бы не за него. Свадьба назначена на завтра и у решительных подруг есть всего лишь одна ночь, чтобы найти Кате нового мужа. Удастся ли им это?



Страна: Россия
Продолжительность: 01:14:18
Перевод: Не требуется [Лицензия]

Файл
Качество: DVDRip
Кодек: XviD
Видео: 688x288 (2.40:1), 25 fps, XviD ~ 1263 Кbps avg, 0.255 bit/pixel
Аудио: MP3, 48 kHz, 2 ch, ~128.00 kbps avg | русский |

Семпл

Общее
Полное имя : D:TorrentsЗавершенныеOdnoklasnici.2016.O.DVDRip.745Mb.avi
Формат : AVI
Формат/Информация : Audio Video Interleave
Размер файла : 744 Мбайт
Продолжительность : 1 ч. 14 м.
Общий поток : 1400 Кбит/сек
Название фильма : Одноклассницы (2016)
Режиссёр : *** stillet ***
Жанр : Комедия
Программа кодирования : VirtualDubMod 1.5.10.3 (build 2550/release)
Библиотека кодирования : VirtualDubMod build 2550/release

Видео
Идентификатор : 0
Формат : MPEG-4 Visual
Профиль формата : Advanced Simple@L5
Параметр BVOP формата : 2
Параметр QPel формата : Нет
Параметр GMC формата : Без точки перехода
Параметр матрицы формата : Выборочная
Идентификатор кодека : XVID
Идентификатор кодека/Подсказка : XviD
Продолжительность : 1 ч. 14 м.
Битрейт : 1263 Кбит/сек
Ширина : 688 пикселей
Высота : 288 пикселей
Соотношение сторон : 2,40:1
Частота кадров : 25,000 кадров/сек
Цветовое пространство : YUV
Субдискретизация насыщенности : 4:2:0
Битовая глубина : 8 бит
Тип развёртки : Прогрессивная
Метод сжатия : С потерями
Бит/(Пиксели*Кадры) : 0.255
Размер потока : 671 Мбайт (90%)
Библиотека кодирования : XviD 73

Аудио
Идентификатор : 1
Формат : MPEG Audio
Версия формата : Version 1
Профиль формата : Layer 3
Режим : Joint stereo
Расширение режима : MS Stereo
Идентификатор кодека : 55
Идентификатор кодека/Подсказка : MP3
Продолжительность : 1 ч. 14 м.
Вид битрейта : Постоянный
Битрейт : 128 Кбит/сек
Каналы : 2 канала
Частота : 48,0 КГц
Метод сжатия : С потерями
Размер потока : 68,0 Мбайт (9%)
Выравнивание : Соединение по промежуткам
Продолжительность промежутка : 40 мс. (1,00 видеокадр)
Время предзагрузки промежутка : 504 мс.



_________________
Проголосуй за трекер Открытый торрент трекер - RUS-MEDIA.ORG

Проголосуй Открытый торрент трекер - RUS-MEDIA.ORG


Скачать книги и аудио книги через торрент


Вернуться к началу
 Профиль Отправить личное сообщение  
 
   Похожие торренты   Автор   Торрент   Размер 
В этой теме нет новых непрочитанных сообщений. Одноклассницы (комедия, 2016) DVDRip-AVC от OlLanDGroup | Лицензия

marya111

235 | 22

744.31 МБ

В этой теме нет новых непрочитанных сообщений. Одноклассницы (2016) DVDRip-AVC от OlLanDGroup | Лицензия

marya111

384 | 17

1.46 ГБ

В этой теме нет новых непрочитанных сообщений. Одноклассницы: Новый поворот [комедия, 2017] WEB-DL 720р [iTunes]

salma3

482 | 21

2.36 ГБ

В этой теме нет новых непрочитанных сообщений. Одноклассницы: Новый поворот [комедия, мелодрама, 2017] WEB-DLRip

salma3

2747 | 151

1.37 ГБ

В этой теме нет новых непрочитанных сообщений. Одноклассницы: Новый поворот [комедия, 2017] WEB-DL 1080р [iTunes]

salma3

2181 | 117

2.61 ГБ

В этой теме нет новых непрочитанных сообщений. #ВСЕ_ИСПРАВИТЬ!?! [драма, музыка, комедия, 2016] DVDRip [Лицензия]

Dracon

326 | 31

1.37 ГБ

В этой теме нет новых непрочитанных сообщений. Почему он? / Why Him? [комедия, 2016] BDRip, Dub [Лицензия]

salma3

2485 | 605

1.47 ГБ


Начать новую тему Ответить на тему  [ 1 сообщение ] 




Для Мосгорсуда, Роскомнадзора и рекламодателей:: mosgorsud-torrent[собачка]yandex.ru
cron