Торрент файл
скачать торрент магнет ссылка Добавлен: 09 янв 2017, 16:23
Размер: 744.74 МБ
Сидеров: 590
Личеров: 33
Автор

СообщениеДобавлено: 09 янв 2017, 16:23 

Не в сети
Дата регистрации:
28 сен 2016, 18:10
Спасибо: 199 / 0
Сообщения: 2005
Информация о фильме
Оригинальное название: Против всех правил
Год выпуска: 2016
Жанр: Комедия
Режиссер: Виктор Демент
В ролях: Алексей Макаров, Александр Яценко, Алексей Дмитриев, Маргарита Шубина, Анатолий Горячев, Тимур Боканча, Игорь Ливанов, Андрей Стоянов

О фильме:
Полковником Колодой, завербованным иностранной разведкой, похищены секретные документы государственной важности. На самом деле, документы — фальшивка, дезинформация для зарубежных спецслужб. Слежка за предателем приводит оперативников в банк, где он оставляет документы в ячейке под номером 69. Чтобы установить, кто придет за ними, в банк под видом клиента приходит капитан Алексей Верещагин. По иронии судьбы, именно этот банк хочет ограбить доведенный до отчаяния кандидат наук и отец-одиночка Михаил Дрыскин. Увидев полицию, он с перепугу берет в заложники посетителей банка.

Страна: Россия
Студия: Кинокомпания «Энджи Продакшн»
Продолжительность: 01:32:01
Перевод: Не требуется

Файл
Формат: avi
Качество: HDTVRip
Видео: XviD build 73, 688x384 (16:9), 25.000 fps, 1053 Kbps (0.159 bit/pixel)
Звук: 48.0 kHz, MP3, 2/0 ch, 128 kbps
Субтитры: нет

General
Complete name : Protiv.Vseh.Pravil.2016.XviD.HDTVRip.GeneralFilm.avi
Format : AVI
Format/Info : Audio Video Interleave
File size : 745 MiB
Duration : 1h 27mn
Overall bit rate : 1 191 Kbps
Writing application : VirtualDubMod 1.5.10.3 | www.virtualdub-fr.org || (build 2550/release)
Writing library : VirtualDubMod build 2550/release

Video
ID : 0
Format : MPEG-4 Visual
Format profile : Advanced Simple@L5
Format settings, BVOP : 1
Format settings, QPel : No
Format settings, GMC : No warppoints
Format settings, Matrix : Custom
Codec ID : XVID
Codec ID/Hint : XviD
Duration : 1h 27mn
Bit rate : 1 053 Kbps
Width : 688 pixels
Height : 384 pixels
Display aspect ratio : 16:9
Frame rate : 25.000 fps
Color space : YUV
Chroma subsampling : 4:2:0
Bit depth : 8 bits
Scan type : Progressive
Compression mode : Lossy
Bits/(Pixel*Frame) : 0.159
Stream size : 659 MiB (88%)
Writing library : XviD 73

Audio
ID : 1
Format : MPEG Audio
Format version : Version 1
Format profile : Layer 3
Codec ID : 55
Codec ID/Hint : MP3
Duration : 1h 27mn
Bit rate mode : Constant
Bit rate : 128 Kbps
Channel(s) : 2 channels
Sampling rate : 48.0 KHz
Compression mode : Lossy
Stream size : 80.1 MiB (11%)
Alignment : Aligned on interleaves
Interleave, duration : 40 ms (1.00 video frame)
Interleave, preload duratio : 504 ms
Writing library : LAME3.99r
Encoding settings : -m s -V 4 -q 0 -lowpass 17 -b 128



Релиз от:




реклама партнёра


Вернуться к началу
 Профиль Отправить личное сообщение  
 
   Похожие торренты   Автор   Торрент   Размер 
В этой теме нет новых непрочитанных сообщений. Против всех правил [Комедия, 2016] HDTVRip

salma3

1689 | 592

1.37 ГБ

В этой теме нет новых непрочитанных сообщений. Один против всех [01-02 из 16] (2017) HDTVRip от GeneralFilm

marya111

60 | 10

1.09 ГБ

В этой теме нет новых непрочитанных сообщений. Лео и Тиг [01 из 05] ( Мультфильм, комедия, семейный, полнометражный, 2016) HDTVRip от Generalfilm

marya111

0 | 0

150.58 МБ

В этой теме нет новых непрочитанных сообщений. Ночь святого Валентина (Комедия, 2016) HDTVRip от GeneralFilm

marya111

659 | 57

745.1 МБ

В этой теме нет новых непрочитанных сообщений. Казаки [01-16 из 16] (2016) HDTVRip от Generalfilm | КПК

marya111

328 | 88

2.86 ГБ

В этой теме нет новых непрочитанных сообщений. Казаки [01-16 из 16] (2016) HDTVRip от GeneralFilm

marya111

498 | 149

4.36 ГБ

В этой теме нет новых непрочитанных сообщений. Моя революция (2016) HDTVRip от GeneralFilm

marya111

1069 | 77

1.45 ГБ


Начать новую тему Ответить на тему  [ 1 сообщение ] 




Для Мосгорсуда, Роскомнадзора и рекламодателей:: mosgorsud-torrent[собачка]yandex.ru