Торрент файл
скачать торрент магнет ссылка Добавлен: 08 янв 2017, 17:17
Размер: 4.35 ГБ
Сидеров: 241
Личеров: 48
Автор

СообщениеДобавлено: 08 янв 2017, 17:17 

Не в сети
Дата регистрации:
28 сен 2016, 18:10
Спасибо: 204 / 0
Сообщения: 2003
[b]Ёлки 1, 2, 3 [Трилогия][/b]

Формат: BDRip-AVC, MKV, H.264, AC3

Страна: Россия

Режиссер: Тимур Бекмамбетов, Ольга Харина, Дмитрий Киселёв

Жанр: комедия, семейный

Год выпуска: 2010-2013

В ролях: Иван Ургант, Сергей Светлаков, Артур Смольянинов, Екатерина Вилкова, Сергей Безруков, Владимир Меньшов, Гоша Куценко, Александр Головин, Виктор Вержбицкий, Алексей Петренко, Петр Федоров, Мария Порошина, Вера Брежнева, Анна Чиповская, Мария Шукшина, Константин Хабенский, Антон Богданов и др.

Описание: События самой новогодней комедии ЁЛКИ происходят в 11 городах: Калининграде, Казани, Перми, Уфе, Бавлах, Екатеринбурге, Красноярске, Якутске, Новосибирске, Санкт-Петербурге и Москве. Герои фильма — таксист и поп-дива, бизнесмен и актер, сноубордист и лыжник, студент и пенсионерка, пожарник и директриса, вор и милиционер, гастарбайтер и Президент России. Все они оказываются в самый канун Нового года в очень непростой ситуации, выйти из которой им поможет только чудо… или Теория шести рукопожатий, согласно которой каждый человек на земле знает другого через шесть знакомых. Ёлки 2: За этот год много чего произошло, но наступит день, который всё расставит на свои места. Продолжение новогодних историй, которые происходили в жизни героев в фильме «Ёлки». Ёлки 3: Спустя два года они снова с нами: любимые герои «Ёлок» в самых невероятных новогодних историях. Боря и Женя, чьи годовалые дети в канун праздника доведут друзей до психушки. Маленькая девочка Настя, чьи родители разлучат ее влюбленных друг в друга собак. Лыжник и сноубордист в самой экстремальной в их жизни гонке — от военкома. И профессор из Екатеринбурга Андрей, чья любвеобильность вновь не доведет его до добра, а только до проруби в минус 30. Под бой курантов этих и новых героев «Ёлок» объединит бумеранг добра. Завершая свой круг, он заслуженно вернётся к каждому, кто его однажды запустил — кому улыбками и объятиями любимых и друзей, кому — праздничным настроением и соответствующим градусу состоянием, а кому-то… телефоном в холодце!

[b]Ёлки[/b]

Озвучивание: Оригинальное [Лицензия]

Формат: BDRip-AVC, MKV, H.264, AC3

Режиссер: Ярослав Чеважевский, Тимур Бекмамбетов, Дмитрий Киселев

Жанр: комедия

Продолжительность: 01:28:58

Год выпуска: 2010

В ролях: Сергей Светлаков, Вера Брежнева, Екатерина Вилкова, Артур Смольянинов, Сергей Гармаш, Иван Ургант, Виктор Вержбицкий

Описание: События самой новогодней комедии ЁЛКИ происходят в 11 городах: Калининграде, Казани, Перми, Уфе, Бавлах, Екатеринбурге, Красноярске, Якутске, Новосибирске, Санкт-Петербурге и Москве. Герои фильма — таксист и поп-дива, бизнесмен и актер, сноубордист и лыжник, студент и пенсионерка, пожарник и директриса, вор и милиционер, гастарбайтер и Президент России. Все они оказываются в самый канун Нового года в очень непростой ситуации, выйти из которой им поможет только чудо… или Теория шести рукопожатий, согласно которой каждый человек на земле знает другого через шесть знакомых.



Видео: 880x374 (2.35:1), 23.976 fps, AVC (H.264), ~ 1880 kbps, 0.238 bit/pixel
Аудио: 48 kHz, AC3 Dolby Digital, 3/2 (L,C,R,l,r) + LFE ch, ~448 kbps
General
Unique ID : 241672649566392623009783913344103480314 (0xB5D07591AA69D916BD698795DBDDFBFA)
Complete name : E:Yolki.1-3_Klayd XYolki.1_Klayd X.mkv
Format : Matroska
File size : 1.45 GiB
Duration : 1h 28mn
Overall bit rate : 2 329 Kbps
Encoded date : UTC 2013-12-11 12:50:43
Writing application : mkvmerge v6.1.0 ('Old Devil') built on Mar 4 2013 09:10:42
Writing library : libebml v1.3.0 + libmatroska v1.4.0

Video
ID : 1
Format : AVC
Format/Info : Advanced Video Codec
Format profile :
Format settings, CABAC : Yes
Format settings, ReFrames : 12 frames
Codec ID : V_MPEG4/ISO/AVC
Duration : 1h 28mn
Bit rate : 1 880 Kbps
Width : 880 pixels
Height : 374 pixels
Display aspect ratio : 2.35:1
Frame rate : 23.976 fps
Color space : YUV
Chroma subsampling : 4:2:0
Bit depth : 8 bits
Scan type : Progressive
Bits/(Pixel*Frame) : 0.238
Stream size : 1.14 GiB (79%)
Title : Yolki.2010.RUS.BDRip-AVC.AC3.-HQ-ViDEO
Writing library : x264 core 130 r2273 b3065e6
Encoding settings : cabac=1 / ref=12 / deblock=1:-2:-2 / analyse=0x3:0x133 / me=umh / subme=11 / psy=1 / psy_rd=1.00:0.00 / mixed_ref=1 / me_range=32 / chroma_me=1 / trellis=2 / 8x8dct=1 / cqm=0 / deadzone=21,11 / fast_pskip=0 / chroma_qp_offset=-2 / threads=6 / lookahead_threads=1 / sliced_threads=0 / nr=0 / decimate=0 / interlaced=0 / bluray_compat=0 / constrained_intra=0 / bframes=13 / b_pyramid=2 / b_adapt=2 / b_bias=0 / direct=3 / weightb=1 / open_gop=0 / weightp=2 / keyint=240 / keyint_min=23 / scenecut=40 / intra_refresh=0 / rc_lookahead=60 / rc=2pass / mbtree=0 / bitrate=1880 / ratetol=1.0 / qcomp=0.60 / qpmin=0 / qpmax=69 / qpstep=4 / cplxblur=20.0 / qblur=0.5 / vbv_maxrate=20000 / vbv_bufsize=20000 / nal_hrd=none / ip_ratio=1.35 / pb_ratio=1.25 / aq=2:1.00
Language : Russian
Color primaries : BT.709-5, BT.1361, IEC 61966-2-4, SMPTE RP177
Transfer characteristics : BT.709-5, BT.1361

Audio
ID : 2
Format : AC-3
Format/Info : Audio Coding 3
Mode extension : CM (complete main)
Codec ID : A_AC3
Duration : 1h 28mn
Bit rate mode : Constant
Bit rate : 448 Kbps
Channel(s) : 6 channels
Channel positions : Front: L C R, Side: L R, LFE
Sampling rate : 48.0 KHz
Bit depth : 16 bits
Compression mode : Lossy
Stream size : 285 MiB (19%)
Title : Russian
Language : Russian










[b]Ёлки 2[/b]

Озвучивание: Оригинальное [Лицензия]

Формат: BDRip-AVC, MKV, H.264, AC3

Режиссер: Дмитрий Киселёв, Александр Баранов, Александр Котт

Жанр: комедия

Продолжительность: 01:40:19

Год выпуска: 2011

В ролях: Сергей Светлаков, Иван Ургант, Вера Брежнева, Сергей Безруков, Владимир Меньшов, Гоша Куценко, Александр Головин, Виктор Вержбицкий, Алексей Петренко, Петр Федоров

Описание: За этот год много чего произошло, но наступит день, который всё расставит на свои места. Продолжение новогодних историй, которые происходили в жизни героев в фильме «Ёлки».



Видео: 960x540 (2.35:1), 23.976 fps, AVC (H.264), ~ 1681 kbps, 0.135 bit/pixel
Аудио: 48 kHz, AC3 Dolby Digital, 3/2 (L,C,R,l,r) + LFE ch, ~384 kbps
General
Unique ID : 246763633425184629505796503080930181994 (0xB9A4F273D4A6FF198BBBC73554BD036A)
Complete name : E:Yolki.1-3_Klayd XYolki.2_Klayd X.mkv
Format : Matroska
File size : 1.45 GiB
Duration : 1h 40mn
Overall bit rate : 2 066 Kbps
Movie name : Ёлки 2 (2011) BDRip-AVC rip by rulya74
Encoded date : UTC 2012-03-28 05:00:28
Writing application : mkvmerge v5.2.1 ('A Far Off Place') built on Jan 2 2012 23:21:10
Writing library : libebml v1.2.3 + libmatroska v1.3.0

Video
ID : 1
Format : AVC
Format/Info : Advanced Video Codec
Format profile :
Format settings, CABAC : Yes
Format settings, ReFrames : 10 frames
Codec ID : V_MPEG4/ISO/AVC
Duration : 1h 40mn
Bit rate : 1 681 Kbps
Width : 960 pixels
Height : 540 pixels
Display aspect ratio : 16:9
Frame rate : 23.976 fps
Color space : YUV
Chroma subsampling : 4:2:0
Bit depth : 8 bits
Scan type : Progressive
Bits/(Pixel*Frame) : 0.135
Stream size : 1.15 GiB (79%)
Writing library : x264 core 120 r2164 da19765
Encoding settings : cabac=1 / ref=10 / deblock=1:-3:-3 / analyse=0x3:0x113 / me=umh / subme=9 / psy=1 / psy_rd=1.00:0.00 / mixed_ref=1 / me_range=32 / chroma_me=1 / trellis=2 / 8x8dct=1 / cqm=0 / deadzone=21,11 / fast_pskip=1 / chroma_qp_offset=-2 / threads=6 / sliced_threads=0 / nr=0 / decimate=1 / interlaced=0 / bluray_compat=0 / constrained_intra=0 / bframes=11 / b_pyramid=2 / b_adapt=1 / b_bias=0 / direct=3 / weightb=1 / open_gop=0 / weightp=2 / keyint=240 / keyint_min=22 / scenecut=40 / intra_refresh=0 / rc=2pass / mbtree=0 / bitrate=1681 / ratetol=1.0 / qcomp=0.60 / qpmin=10 / qpmax=51 / qpstep=4 / cplxblur=20.0 / qblur=0.5 / ip_ratio=1.40 / pb_ratio=1.30 / aq=1:1.00

Audio
ID : 2
Format : AC-3
Format/Info : Audio Coding 3
Mode extension : CM (complete main)
Codec ID : A_AC3
Duration : 1h 40mn
Bit rate mode : Constant
Bit rate : 384 Kbps
Channel(s) : 6 channels
Channel positions : Front: L C R, Side: L R, LFE
Sampling rate : 48.0 KHz
Bit depth : 16 bits
Compression mode : Lossy
Stream size : 276 MiB (19%)
Title : Оригинал
Language : Russian









[b]Ёлки 3[/b]

Озвучивание: Оригинальное [Лицензия]

Формат: BDRip-AVC, MKV, H.264, AC3

Выпущено: Россия

Режиссер: Ольга Харина, Дмитрий Киселёв, Александр Котт

Жанр: комедия, семейный

Продолжительность: 01:36:50

Год выпуска: 2013

В ролях: Иван Ургант, Сергей Светлаков, Анна Чиповская, Константин Хабенский, Гоша Куценко, Валентин Гафт, Татьяна Догилева, Пётр Фёдоров, Мария Шукшина, Антон Богданов

Описание: Спустя два года они снова с нами: любимые герои «Ёлок» в самых невероятных новогодних историях. Боря и Женя, чьи годовалые дети в канун праздника доведут друзей до психушки. Маленькая девочка Настя, чьи родители разлучат ее влюбленных друг в друга собак. Лыжник и сноубордист в самой экстремальной в их жизни гонке — от военкома. И профессор из Екатеринбурга Андрей, чья любвеобильность вновь не доведет его до добра, а только до проруби в минус 30. Под бой курантов этих и новых героев «Ёлок» объединит бумеранг добра. Завершая свой круг, он заслуженно вернётся к каждому, кто его однажды запустил — кому улыбками и объятиями любимых и друзей, кому — праздничным настроением и соответствующим градусу состоянием, а кому-то… телефоном в холодце!



Видео: 884x372 (2.35:1), 24.000 fps, AVC (H.264), ~ 1760 kbps, 0.223 bit/pixel
Аудио: 48 kHz, AC3 Dolby Digital, 3/2 (L,C,R,l,r) + LFE ch, ~384 kbps
General
Unique ID : 235006845970480612530623073281133470896 (0xB0CCAC13ED312D3684B1DF480A8764B0)
Complete name : E:Yolki.1-3_Klayd XYolki.3_Klayd X.mkv
Format : Matroska
File size : 1.45 GiB
Duration : 1h 36mn
Overall bit rate : 2 146 Kbps
Encoded date : UTC 2014-02-03 10:58:04
Writing application : mkvmerge v6.1.0 ('Old Devil') built on Mar 4 2013 09:10:42
Writing library : libebml v1.3.0 + libmatroska v1.4.0

Video
ID : 1
Format : AVC
Format/Info : Advanced Video Codec
Format profile :
Format settings, CABAC : Yes
Format settings, ReFrames : 14 frames
Codec ID : V_MPEG4/ISO/AVC
Duration : 1h 36mn
Bit rate : 1 760 Kbps
Width : 884 pixels
Height : 372 pixels
Display aspect ratio : 2.35:1
Frame rate : 24.000 fps
Color space : YUV
Chroma subsampling : 4:2:0
Bit depth : 8 bits
Scan type : Progressive
Bits/(Pixel*Frame) : 0.223
Stream size : 1.16 GiB (80%)
Title : Yolki.3.2013.RUS.BDRip-AVC.AC3.-HQ-ViDEO
Writing library : x264 core 140 r2377kMod 1ca7bb9
Encoding settings : cabac=1 / ref=14 / deblock=1:-2:-1 / analyse=0x3:0x133 / me=umh / subme=11 / psy=1 / fade_compensate=0.00 / psy_rd=1.00:0.00 / mixed_ref=1 / me_range=32 / chroma_me=1 / trellis=2 / 8x8dct=1 / cqm=0 / deadzone=21,11 / fast_pskip=0 / chroma_qp_offset=-2 / threads=6 / lookahead_threads=1 / sliced_threads=0 / nr=0 / decimate=0 / interlaced=0 / bluray_compat=0 / constrained_intra=0 / fgo=0 / bframes=15 / b_pyramid=2 / b_adapt=2 / b_bias=0 / direct=3 / weightb=1 / open_gop=0 / weightp=2 / keyint=240 / keyint_min=24 / scenecut=40 / intra_refresh=0 / rc_lookahead=60 / rc=2pass / mbtree=0 / bitrate=1760 / ratetol=1.0 / qcomp=0.65 / qpmin=0 / qpmax=69 / qpstep=4 / cplxblur=20.0 / qblur=0.5 / vbv_maxrate=20000 / vbv_bufsize=20000 / nal_hrd=none / filler=0 / ip_ratio=1.35 / pb_ratio=1.25 / aq=2:1.00
Language : Russian
Color primaries : BT.709-5, BT.1361, IEC 61966-2-4, SMPTE RP177
Transfer characteristics : BT.709-5, BT.1361

Audio
ID : 2
Format : AC-3
Format/Info : Audio Coding 3
Mode extension : CM (complete main)
Codec ID : A_AC3
Duration : 1h 36mn
Bit rate mode : Constant
Bit rate : 384 Kbps
Channel(s) : 6 channels
Channel positions : Front: L C R, Side: L R, LFE
Sampling rate : 48.0 KHz
Bit depth : 16 bits
Compression mode : Lossy
Stream size : 266 MiB (18%)
Title : Original (Russian)
Language : Russian













реклама партнёра


Вернуться к началу
 Профиль Отправить личное сообщение  
 
   Похожие торренты   Автор   Торрент   Размер 
В этой теме нет новых непрочитанных сообщений. Ёлки 1914 (Ольга Харина, Тимур Бекмамбетов, Заур Засеев) [Комедия, 2014] BDRip 1080p [Лицензия]

Dracon

468 | 8

6.7 ГБ

В этой теме нет новых непрочитанных сообщений. Ёлки 1914 (Ольга Харина, Тимур Бекмамбетов, Заур Засеев) [Комедия, 2014] BDRip 720p [Лицензия]

Dracon

1153 | 14

3.56 ГБ

В этой теме нет новых непрочитанных сообщений. Ёлки 1914 (Ольга Харина, Тимур Бекмамбетов, Заур Засеев) [Комедия, 2014] Blu-Ray [Лицензия]

Dracon

1 | 5

16.74 ГБ

В этой теме нет новых непрочитанных сообщений. Ёлки 1914 (Ольга Харина, Тимур Бекмамбетов, Заур Засеев) [Комедия, 2014] HDRip

Dracon

227 | 6

1.46 ГБ

В этой теме нет новых непрочитанных сообщений. Ёлки 1914 (Ольга Харина, Тимур Бекмамбетов, Заур Засеев) [Комедия, 2014] CAMRip

Dracon

69 | 5

1.36 ГБ

В этой теме нет новых непрочитанных сообщений. Ёлки 1914 (Ольга Харина, Тимур Бекмамбетов, Заур Засеев) [Комедия, 2014] BDRemux 1080p [Лицензия]

Dracon

4 | 5

15.87 ГБ

В этой теме нет новых непрочитанных сообщений. Ёлки лохматые (Максим Свешников) [Комедия, Семейный, 2014] BDRip

Dracon

25 | 4

1.37 ГБ


Начать новую тему Ответить на тему  [ 1 сообщение ] 




Для Мосгорсуда, Роскомнадзора и рекламодателей:: mosgorsud-torrent[собачка]yandex.ru