Торрент файл
скачать торрент магнет ссылка Добавлен: 08 янв 2017, 15:27
Размер: 1.37 ГБ
Сидеров: 288
Личеров: 128
Статус: (salma3)
Автор

СообщениеДобавлено: 08 янв 2017, 15:27 

В сети
Супермодератор
Аватара пользователя
Дата регистрации:
15 фев 2012, 16:44
Возраст: 27
Спасибо: 5717 / 2111
Сообщения: 25035
Формат: HDTVRip-AVC, MKV, H.264, AC3
Режиссер: Александр Грабарь
Жанр: мелодрама
Продолжительность: 01:33:55
Год выпуска: 2016

В ролях: Виктория Полторак, Александр Константинов, Марина Денисова, Святослав Астрамович, Ирина Фроемчук, Олеся Пуховая, Светлана Кожемякина, Олег Ткачёв, Александр Гиренок, Петр Юрченков (мл.)

Описание: Когда-то беременную Вику (Виктория Полторак) бросил муж Стас и ушел к другой женщине - Насте (Марина Денисова). От переживаний у Вики случился выкидыш, после которого она больше не смогла иметь детей. Вика замкнулась в себе и решила, что больше никогда не выйдет замуж. Спустя несколько лет Вика стала строгой, уверенной в себе и преуспевающей женщиной – директором известного рекламного агентства. Ее молодой человек мечтает о семье, но Вика соглашается лишь на свободные отношения. И вот спустя много лет в ее доме появляется та самая разлучница Настя. Стас совершил ограбление, чтобы раздобыть деньги ей на операцию, и его арестовали. Настя нужно срочно ложиться в больницу, иначе она может умереть, но ей не с кем оставить их дочь Леру. Брат Насти – моряк Алексей (Александр Константинов) сможет приехать и забрать Настю только через несколько дней. Настя просит Вику помочь ей и забрать девочку к себе. Вика выставляет Настю за дверь… но обстоятельства складываются так, что Вика вынуждена согласиться. Внезапно Настя умирает, и Вика оказывается один на один с ее ребенком…



Видео: 1024x576 (16:9), 25 fps, AVC MPEG-4 (x264), , ~ 1939 kbps avg, 0.131 bit/pixel
Аудио: 48 kHz, AC3, 2/0 (L,R) ch, ~192 kbps

Общее
Уникальный идентификатор : 201998536375792558770258904388559215942 (0x97F780C423BF21B3AE46E5381A649D46)
Полное имя : C:\Отогрей мое сердце.2016.HDTVRip.AVC.mkv
Формат : Matroska
Версия формата : Version 2
Размер файла : 1,37 Гбайт
Продолжительность : 1 ч. 31 м.
Общий поток : 2133 Кбит/сек
Дата кодирования : UTC 2017-01-07 05:55:21
Программа кодирования : mkvmerge v7.8.0 ('River Man') 32bit built on Apr 3 2015 12:11:22
Библиотека кодирования : libebml v1.3.1 + libmatroska v1.4.2

Видео
Идентификатор : 1
Формат : AVC
Формат/Информация : Advanced Video Codec
Профиль формата :
Параметр CABAC формата : Да
Параметр ReFrames формата : 9 кадров
Идентификатор кодека : V_MPEG4/ISO/AVC
Продолжительность : 1 ч. 31 м.
Битрейт : 1939 Кбит/сек
Ширина : 1024 пикселя
Высота : 576 пикселей
Соотношение сторон : 16:9
Режим частоты кадров : Постоянный
Частота кадров : 25,000 кадров/сек
Цветовое пространство : YUV
Субдискретизация насыщенности : 4:2:0
Битовая глубина : 8 бит
Тип развёртки : Прогрессивная
Бит/(Пиксели*Кадры) : 0.131
Размер потока : 1,22 Гбайт (89%)
Библиотека кодирования : x264 core 146 r2538 121396c
Настройки программы : cabac=1 / ref=9 / deblock=1:-2:-1 / analyse=0x3:0x113 / me=umh / subme=9 / psy=1 / psy_rd=1.00:0.15 / mixed_ref=1 / me_range=32 / chroma_me=1 / trellis=2 / 8x8dct=1 / cqm=0 / deadzone=21,11 / fast_pskip=0 / chroma_qp_offset=-3 / threads=6 / lookahead_threads=1 / sliced_threads=0 / nr=0 / decimate=1 / interlaced=0 / bluray_compat=0 / constrained_intra=0 / bframes=9 / b_pyramid=2 / b_adapt=2 / b_bias=0 / direct=1 / weightb=1 / open_gop=0 / weightp=2 / keyint=250 / keyint_min=25 / scenecut=40 / intra_refresh=0 / rc_lookahead=50 / rc=2pass / mbtree=0 / bitrate=1939 / ratetol=1.0 / qcomp=0.60 / qpmin=0 / qpmax=69 / qpstep=4 / cplxblur=20.0 / qblur=0.5 / vbv_maxrate=14000 / vbv_bufsize=14000 / nal_hrd=none / filler=0 / ip_ratio=1.40 / pb_ratio=1.30 / aq=2:1.00
Default : Да
Forced : Нет
Цветовой диапазон : Limited
Основные цвета : BT.709
Характеристики трансфера : BT.709
Коэффициенты матрицы : BT.709

Аудио
Идентификатор : 2
Формат : AC-3
Формат/Информация : Audio Coding 3
Расширение режима : CM (complete main)
Параметр Endianness формата : Big
Идентификатор кодека : A_AC3
Продолжительность : 1 ч. 31 м.
Вид битрейта : Постоянный
Битрейт : 192 Кбит/сек
Каналы : 2 канала
Расположение каналов : Front: L R
Частота : 48,0 КГц
Частота кадров : 31,250 кадров/сек (1536 spf)
Битовая глубина : 16 бит
Метод сжатия : С потерями
Размер потока : 126 Мбайт (9%)
Default : Да
Forced : Нет




_________________
Проголосуй за трекер Открытый торрент трекер - RUS-MEDIA.ORG




реклама партнёра


Вернуться к началу
 Профиль Отправить личное сообщение  
 
   Похожие торренты   Автор   Торрент   Размер 
В этой теме нет новых непрочитанных сообщений. Отогрей мое сердце ( Мелодрама, 2016) HDTVRip от GeneralFilm

marya111

430 | 41

744.74 МБ

В этой теме нет новых непрочитанных сообщений. Отогрей мое сердце [Мелодрама, 2016] SATRip

Dracon

0 | 0

1.37 ГБ

В этой теме нет новых непрочитанных сообщений. Холодное сердце [01-02 из 02] (Мелодрама, 2016) HDTVRip от GeneralFilm

marya111

625 | 98

1.46 ГБ

В этой теме нет новых непрочитанных сообщений. Холодное сердце (1-2 серии из 2) [мелодрама, 2016] HDTVRip

salma3

1414 | 252

2.73 ГБ

В этой теме нет новых непрочитанных сообщений. Каменное сердце [01 из 04] (Мелодрама, детектив, 2016) WEB-DLRip

marya111

0 | 0

570.02 МБ

В этой теме нет новых непрочитанных сообщений. Каменное сердце [01-04 из 04] (Мелодрама, детектив, 2016) WEB-DLRip

marya111

0 | 0

2.31 ГБ

В этой теме нет новых непрочитанных сообщений. Холодное сердце [01-02 из 02] [Мелодрама, 2016] HDTV 1080i

salma3

61 | 21

10.29 ГБ


Начать новую тему Ответить на тему  [ 1 сообщение ] 




Для Мосгорсуда, Роскомнадзора и рекламодателей:: mosgorsud-torrent[собачка]yandex.ru