Торрент файл
скачать торрент магнет ссылка Добавлен: 05 янв 2017, 11:44
Размер: 744.97 МБ
Сидеров: 194
Личеров: 28
Статус: (salma3)
Автор

СообщениеДобавлено: 05 янв 2017, 11:44 

Не в сети
Супермодератор
Аватара пользователя
Дата регистрации:
15 фев 2012, 16:44
Возраст: 28
Спасибо: 6642 / 2146
Сообщения: 45664
Год выпуска: 2015
Жанр: Детектив
Режиссер: Роман Мушегян

В ролях: Анатолий Смиранин (III), Ирина Виноградова (III), Гаяне Асламазян, Александр Бадалян, Екатерина Архарова, Ирина Чериченко, Давид Кацарава, Борис Эстрин, Сергей Глушков, Давид Шумский

О фильме:
Владелец прибрежного отеля нанимает частного детектива, но тот даже не успевает доехать до места, как заказчик погибает. Детектив предлагает вдове вернуть полученный аванс, но она просит его остаться, полагая, что его услуги еще могут понадобиться...



Страна: Россия
Студия: Кинокомпания «Berg Sound»
Продолжительность: 01:21:56
Перевод: Не требуется

Файл
Формат: avi
Качество: WEB-DLRip
Видео: XviD build 73, 720x304 (2.35:1), 25.000 fps, 1134 Kbps (0.207 bit/pixel)
Звук: 48.0 kHz, MP3, 2/0 ch, 128 kbps
Субтитры: нет

General
Complete name : Otelj.2015.XviD.WEB-DLRip.GeneralFilm.avi
Format : AVI
Format/Info : Audio Video Interleave
File size : 745 MiB
Duration : 1h 21mn
Overall bit rate : 1 271 Kbps
Writing application : VirtualDubMod 1.5.10.3 | www.virtualdub-fr.org || (build 2550/release)
Writing library : VirtualDubMod build 2550/release

Video
ID : 0
Format : MPEG-4 Visual
Format profile : Advanced Simple@L5
Format settings, BVOP : 1
Format settings, QPel : No
Format settings, GMC : No warppoints
Format settings, Matrix : Custom
Codec ID : XVID
Codec ID/Hint : XviD
Duration : 1h 21mn
Bit rate : 1 134 Kbps
Width : 720 pixels
Height : 304 pixels
Display aspect ratio : 2.35:1
Frame rate : 25.000 fps
Color space : YUV
Chroma subsampling : 4:2:0
Bit depth : 8 bits
Scan type : Progressive
Compression mode : Lossy
Bits/(Pixel*Frame) : 0.207
Stream size : 664 MiB (89%)
Writing library : XviD 73

Audio
ID : 1
Format : MPEG Audio
Format version : Version 1
Format profile : Layer 3
Codec ID : 55
Codec ID/Hint : MP3
Duration : 1h 21mn
Bit rate mode : Constant
Bit rate : 128 Kbps
Channel(s) : 2 channels
Sampling rate : 48.0 KHz
Compression mode : Lossy
Stream size : 75.0 MiB (10%)
Alignment : Aligned on interleaves
Interleave, duration : 40 ms (1.00 video frame)
Interleave, preload duratio : 504 ms
Writing library : LAME3.99r
Encoding settings : -m s -V 4 -q 0 -lowpass 17 -b 128


Релиз от:


_________________
Проголосуй за трекер Открытый торрент трекер - RUS-MEDIA.ORG

Проголосуй Открытый торрент трекер - RUS-MEDIA.ORG



реклама партнёра


Вернуться к началу
 Профиль Отправить личное сообщение  
 
   Похожие торренты   Автор   Торрент   Размер 
В этой теме нет новых непрочитанных сообщений. Отель [Детектив, 2015] WEB-DLRip-AVC

marya111

25 | 1

1.25 ГБ

В этой теме нет новых непрочитанных сообщений. Отель [Детектив, 2015] WEB-DLRip

marya111

707 | 58

1.24 ГБ

В этой теме нет новых непрочитанных сообщений. Отель [Детектив, 2015] WEB-DLRip 720p

salma3

137 | 12

1.26 ГБ

В этой теме нет новых непрочитанных сообщений. Отель [Детектив, 2015] WEB-DLRip 1080p

salma3

258 | 42

2.97 ГБ

В этой теме нет новых непрочитанных сообщений. Отель последней надежды [01-04 из 04] (Детектив, мелодрама, 2016) WEB-DL 1080p

marya111

57 | 5

3.69 ГБ

В этой теме нет новых непрочитанных сообщений. Леди-детектив мисс Фрайни Фишер / Miss Fisher's Murder Mysteries / 3 сезон 1-8 серии из 8 [Детектив, криминал, драма, 2015] WEB-DLRip, Mvo [ViruseProject]

salma3

228 | 85

4.71 ГБ

В этой теме нет новых непрочитанных сообщений. Отель «Мэриголд». Заселение продолжается / The Second Best Exotic Marigold Hotel (Джон Мэдден) [Драма, Комедия, 2015] HDRip, Dub [iTunes]

Dracon

49 | 2

2.05 ГБ


Начать новую тему Ответить на тему  [ 1 сообщение ] 




Для Мосгорсуда, Роскомнадзора и рекламодателей:: mosgorsud-torrent[собачка]yandex.ru