Торрент файл
скачать торрент магнет ссылка Добавлен: 28 дек 2016, 14:33
Размер: 1.47 ГБ
Сидеров: 946
Личеров: 183
Статус: (salma3)
Автор

СообщениеДобавлено: 28 дек 2016, 14:33 

Не в сети
Супермодератор
Аватара пользователя
Дата регистрации:
15 фев 2012, 16:44
Возраст: 28
Спасибо: 7290 / 2147
Сообщения: 70618
Формат: WEB-DLRip, AVI, XviD, AC3
Режиссер: Олег Тактаров, Александр Мосин
Жанр: комедия
Продолжительность: 01:22:48
Год выпуска: 2015

В ролях: Николай Кудряшов, Юлия Лонгинова, Том ’Тайни’ Листер мл., Олег Тактаров, Александр Мосин, Александр Баширов, Юлия Гришина, Денис Козлов, Сергей Литвинский, Жуль Санчес

Описание:
Николай — честный, принципиальный парень средних лет. Офицер запаса с богатым опытом сложно адаптируется в гражданской жизни, то и дело подрабатывая в охране. Не найдя общего языка с очередным боссом, Николай увольняется с работы, едва заступив на службу. Однако на следующее утро на пороге его дома появляется супруга бывшего работодателя, со странным предложением поехать в Америку в качестве сопровождающего молодой дамы. За столь не пыльную, на первый взгляд, работу дамочка готова заплатить кругленькую сумму, а значит, поездка обещает быть весьма не простой. Испытывая острую нужду в деньгах, Николай соглашается на предложение, даже не подозревая о том, сколь опасным окажется путешествие в роскошный Лас-Вегас…



Видео: 720x304 (2.35:1), 25 fps, XviD MPEG-4 ~2149 kbps avg, 0.393 bit/pixel
Аудио: 48 kHz, АС3, 2 ch, (Front: L R) ~384.00 kbps avg
Есть реклама от спонсора показа!!

Общее
Полное имя : C:\Users\Downloads\Kartyna.maslom.2015.O.WEB-DLRip.1.46GB.avi
Формат : AVI
Формат/Информация : Audio Video Interleave
Размер файла : 1,47 Гбайт
Продолжительность : 1 ч. 22 м.
Общий поток : 2542 Кбит/сек
Программа кодирования : VirtualDubMod 1.5.10.2 (build 2540/release)
Библиотека кодирования : VirtualDubMod build 2540/release

Видео
Идентификатор : 0
Формат : MPEG-4 Visual
Профиль формата : Advanced Simple@L5
Параметр BVOP формата : 2
Параметр QPel формата : Нет
Параметр GMC формата : Без точки перехода
Параметр матрицы формата : Default (H.263)
Идентификатор кодека : XVID
Идентификатор кодека/Подсказка : XviD
Продолжительность : 1 ч. 22 м.
Битрейт : 2149 Кбит/сек
Ширина : 720 пикселей
Высота : 304 пикселя
Соотношение сторон : 2,35:1
Частота кадров : 25,000 кадров/сек
Цветовое пространство : YUV
Субдискретизация насыщенности : 4:2:0
Битовая глубина : 8 бит
Тип развёртки : Прогрессивная
Метод сжатия : С потерями
Бит/(Пиксели*Кадры) : 0.393
Размер потока : 1,24 Гбайт (85%)
Библиотека кодирования : XviD 1.2.1 (UTC 2008-12-04)

Аудио
Идентификатор : 1
Формат : AC-3
Формат/Информация : Audio Coding 3
Расширение режима : CM (complete main)
Параметр Endianness формата : Big
Идентификатор кодека : 2000
Продолжительность : 1 ч. 22 м.
Вид битрейта : Постоянный
Битрейт : 384 Кбит/сек
Каналы : 2 канала
Расположение каналов : Front: L R
Частота : 48,0 КГц
Битовая глубина : 16 бит
Метод сжатия : С потерями
Размер потока : 227 Мбайт (15%)
Выравнивание : Разделение по промежуткам
Продолжительность промежутка : 40 мс. (1,00 видеокадр)
Время предзагрузки промежутка : 500 мс.




_________________
Проголосуй за трекер Открытый торрент трекер - RUS-MEDIA.ORG

Проголосуй Открытый торрент трекер - RUS-MEDIA.ORG


Вернуться к началу
 Профиль Отправить личное сообщение  
 
   Похожие торренты   Автор   Торрент   Размер 
В этой теме нет новых непрочитанных сообщений. Картина красоты / Picture of Beauty (2017) HDRip | Rus

salma3

72 | 4

1.46 ГБ

В этой теме нет новых непрочитанных сообщений. Норвег [Комедия, 2015] WEB-DLRip

salma3

27 | 5

1.46 ГБ

В этой теме нет новых непрочитанных сообщений. 15 суток [Комедия, 2015] WEB-DLRip

salma3

407 | 112

1.37 ГБ

В этой теме нет новых непрочитанных сообщений. Воры / Ladrones [Комедия, 2015] WEB-DLRip, Dvo

salma3

3 | 1

743.99 МБ

В этой теме нет новых непрочитанных сообщений. Мачо Мэн / Macho Man [комедия, 2015] WEB-DLRip, Mvo

salma3

686 | 55

1.37 ГБ

В этой теме нет новых непрочитанных сообщений. Завтрак у папы [комедия, 2015] WEB-DLRip

salma3

12333 | 510

1.37 ГБ

В этой теме нет новых непрочитанных сообщений. Новогодний отрыв / Incidencias [Комедия, 2015] WEB-DLRip, Dub

Dracon

5175 | 306

1.37 ГБ


Начать новую тему Ответить на тему  [ 1 сообщение ] 




Для Мосгорсуда, Роскомнадзора и рекламодателей:: mosgorsud-torrent[собачка]yandex.ru
cron