Торрент файл
скачать торрент магнет ссылка Добавлен: 23 ноя 2016, 22:24
Размер: 1.35 ГБ
Сидеров: 298
Личеров: 33
Статус: (salma3)
Автор

СообщениеДобавлено: 23 ноя 2016, 22:24 

Не в сети
Супермодератор
Аватара пользователя
Дата регистрации:
15 фев 2012, 16:44
Возраст: 28
Спасибо: 6656 / 2146
Сообщения: 46014
Формат: WEB-DLRip-AVC, MKV, H.264, AC3
Режиссер: Ольга Беляева
Жанр: приключения, детектив, детский, семейный, комедия
Продолжительность: 01:16:40
Год выпуска: 2016

В ролях: Евдокия Колесникова, Эрих Чупин, Ремзи Оказов, Ирина Скобцева, Алина Крюкова, Константин Крюков, Галина Польских, Сергей Никоненко, Андрюс Паулавичюс

Описание:
Сережа – типичный городской мальчишка. Так же, как и его сверстники, он проводит свои летние каникулы, играя в компьютерные игры. Однажды он вместе с родителями приезжает на все лето в Крым. Здесь его ждут завораживающая природа, новые друзья, головокружительные приключения с далеко не детскими испытаниями и опасностями!

Рейтинг и доп. информация:


Видео: 1024x428 (2.40:1), 24 fps, AVC MPEG-4 (x264), , 2129 Кbps avg, 0.194 bit/pixel
Аудио: 48.0 kHz, AC3 Dolby Digital, 3/2 (L,C,R,l,r) + LFE ch, ~384 kbps
General
Unique ID : 183370900678064081231379032929815545508 (0x89F3F36B339171CCAB57014C2FB0C6A4)
Complete name : E:Opasnye.kanikuly.2016.O.WEB-DLRip.mkv
Format : Matroska
Format version : Version 2
File size : 1.35 GiB
Duration : 1 h 16 min
Overall bit rate : 2 516 kb/s
Movie name : Opasnye kanikuly (2016) from ExKinoray
Encoded date : UTC 2016-11-23 03:35:52
Writing application : mkvmerge v7.6.0 ('Garden of Dreams') 32bit built on Feb 11 2015 00:18:47
Writing library : libebml v1.3.1 + libmatroska v1.4.2

Video
ID : 1
Format : AVC
Format/Info : Advanced Video Codec
Format profile :
Format settings, CABAC : Yes
Format settings, ReFrames : 11 frames
Codec ID : V_MPEG4/ISO/AVC
Duration : 1 h 16 min
Bit rate : 2 129 kb/s
Width : 1 024 pixels
Height : 428 pixels
Display aspect ratio : 2.40:1
Frame rate mode : Constant
Frame rate : 25.000 FPS
Color space : YUV
Chroma subsampling : 4:2:0
Bit depth : 8 bits
Scan type : Progressive
Bits/(Pixel*Frame) : 0.194
Stream size : 1.11 GiB (83%)
Title : Enigma
Writing library : x264 core 144 r2525 40bb568
Encoding settings : cabac=1 / ref=11 / deblock=1:-1:-2 / analyse=0x3:0x113 / me=umh / subme=10 / psy=1 / psy_rd=1.05:0.15 / mixed_ref=1 / me_range=32 / chroma_me=1 / trellis=2 / 8x8dct=1 / cqm=0 / deadzone=21,11 / fast_pskip=1 / chroma_qp_offset=-3 / threads=12 / lookahead_threads=3 / sliced_threads=0 / nr=0 / decimate=1 / interlaced=0 / bluray_compat=0 / constrained_intra=0 / bframes=10 / b_pyramid=2 / b_adapt=2 / b_bias=0 / direct=3 / weightb=1 / open_gop=0 / weightp=2 / keyint=250 / keyint_min=25 / scenecut=40 / intra_refresh=0 / rc_lookahead=40 / rc=2pass / mbtree=0 / bitrate=2129 / ratetol=1.0 / qcomp=0.60 / qpmin=0 / qpmax=51 / qpstep=4 / cplxblur=20.0 / qblur=0.5 / vbv_maxrate=50000 / vbv_bufsize=62500 / nal_hrd=none / filler=0 / ip_ratio=1.40 / pb_ratio=1.30 / aq=1:1.00
Default : Yes
Forced : No
Color range : Limited
Color primaries : BT.709
Transfer characteristics : BT.709
Matrix coefficients : BT.709

Audio
ID : 2
Format : AC-3
Format/Info : Audio Coding 3
Mode extension : CM (complete main)
Format settings, Endianness : Big
Codec ID : A_AC3
Duration : 1 h 16 min
Bit rate mode : Constant
Bit rate : 384 kb/s
Channel(s) : 6 channels
Channel positions : Front: L C R, Side: L R, LFE
Sampling rate : 48.0 kHz
Frame rate : 31.250 FPS (1536 spf)
Compression mode : Lossy
Stream size : 211 MiB (15%)
Language : Russian
Default : Yes
Forced : No

Menu
00:00:00.000 : en:Глава 1
00:03:57.520 : en:Глава 2
00:08:18.840 : en:Глава 3
00:14:03.840 : en:Глава 4
00:19:15.840 : en:Глава 5
00:24:02.240 : en:Глава 6
00:28:46.600 : en:Глава 7
00:33:31.840 : en:Глава 8
00:39:04.960 : en:Глава 9
00:45:06.200 : en:Глава 10
00:50:19.120 : en:Глава 11
00:55:24.560 : en:Глава 12
01:01:50.040 : en:Глава 13
01:06:35.520 : en:Глава 14
01:10:43.520 : en:Глава 15




_________________
Проголосуй за трекер Открытый торрент трекер - RUS-MEDIA.ORG

Проголосуй Открытый торрент трекер - RUS-MEDIA.ORG



реклама партнёра


Вернуться к началу
 Профиль Отправить личное сообщение  
 
   Похожие торренты   Автор   Торрент   Размер 
В этой теме нет новых непрочитанных сообщений. Опасные каникулы [приключения, семейный, 2016] WEB-DLRip

salma3

276 | 17

1.16 ГБ

В этой теме нет новых непрочитанных сообщений. Опасные каникулы [Приключения, семейный, комедия, 2016] WEB-DL 720p [iTunes]

salma3

693 | 86

2.34 ГБ

В этой теме нет новых непрочитанных сообщений. Ура! Каникулы! [комедия, семейный, детский. 2016] WEB-DLRip [iTunes]

salma3

4217 | 596

1.37 ГБ

В этой теме нет новых непрочитанных сообщений. Опасные каникулы [приключения, семейный, 2016] WEB-DL 1080p [iTunes]

salma3

495 | 28

2.67 ГБ

В этой теме нет новых непрочитанных сообщений. Ура! Каникулы! [комедия, семейный, детский, 2016] WEB-DL 720p

salma3

612 | 130

2.9 ГБ

В этой теме нет новых непрочитанных сообщений. Лунтик и его друзья [01-08x1-473,478-479 из 479+485] (мультфильм, детский, комедия, приключения, семейный, 2006-2016) WEB-DLRip от ExKinoRay

marya111

11 | 35

16.02 ГБ

В этой теме нет новых непрочитанных сообщений. Бумажки [01-62] (Мультсериал, детский, семейный, приключения, 2015-2016) WEB-DLRip 1080p от ExKinoRay

marya111

0 | 0

5.33 ГБ


Начать новую тему Ответить на тему  [ 1 сообщение ] 




Для Мосгорсуда, Роскомнадзора и рекламодателей:: mosgorsud-torrent[собачка]yandex.ru