Торрент файл
скачать торрент магнет ссылка Добавлен: 06 окт 2016, 02:08
Размер: 743.83 МБ
Сидеров: 94
Личеров: 1
Статус: (salma3)
Автор

СообщениеДобавлено: 06 окт 2016, 02:08 

Не в сети
Дата регистрации:
28 сен 2016, 18:10
Спасибо: 64 / 0
Сообщения: 1040
Год выпуска: 2016
Жанр: Комедия
Режиссеры: Михаил Жерневский, Леонид Марголин

В ролях: Дмитрий Нагиев, Анна Хилькевич, Игорь Верник, Сергей Белоголовцев, Грант Тохатян, Владимир Епифанцев, Екатерина Скулкина, Елена Борщева, Виктор Степанян, Ян Цапник

О фильме:
Это история о том, какими разными могут быть мужчины. О том, что мужчины — это, в первую очередь, сложные решения и настоящие поступки. О том, в чем мужчины могут быть сильны, а в чем комичны. О том, за что их можно и нужно любить...



Страна: Россия
Студия: Enjoy Movies, Fresh Film
Продолжительность: 01:18:52
Перевод: Не требуется (русский) | iTunes
Файл
Формат: AVI
Качество: WEB-DLRip
Видео: XviD build 73, 688x288 (2.40:1), 24.000 fps, 1182 Kbps (0.249 bit/pixel)
Звук: 48.0 kHz, MP3, 2 ch, 128 kbps
General
Complete name : Vse.O.Muzhchinah.2016.XviD.P.WEB-DLRip.by.GeneralFilm.avi
Format : AVI
Format/Info : Audio Video Interleave
File size : 744 MiB
Duration : 1h 18mn
Overall bit rate : 1 320 Kbps
Writing application : VirtualDubMod 1.5.10.3 | www.virtualdub-fr.org || (build 2550/release)
Writing library : VirtualDubMod build 2550/release
Video
ID : 0
Format : MPEG-4 Visual
Format profile : Advanced Simple@L5
Format settings, BVOP : 1
Format settings, QPel : No
Format settings, GMC : No warppoints
Format settings, Matrix : Custom
Codec ID : XVID
Codec ID/Hint : XviD
Duration : 1h 18mn
Bit rate : 1 182 Kbps
Width : 688 pixels
Height : 288 pixels
Display aspect ratio : 2.40:1
Frame rate : 24.000 fps
Color space : YUV
Chroma subsampling : 4:2:0
Bit depth : 8 bits
Scan type : Progressive
Compression mode : Lossy
Bits/(Pixel*Frame) : 0.249
Stream size : 666 MiB (90%)
Writing library : XviD 73
Audio
ID : 1
Format : MPEG Audio
Format version : Version 1
Format profile : Layer 3
Codec ID : 55
Codec ID/Hint : MP3
Duration : 1h 18mn
Bit rate mode : Constant
Bit rate : 128 Kbps
Channel(s) : 2 channels
Sampling rate : 48.0 KHz
Compression mode : Lossy
Stream size : 72.1 MiB (10%)
Alignment : Aligned on interleaves
Interleave, duration : 42 ms (1.00 video frame)
Interleave, preload duratio : 504 ms
Writing library : LAME3.99r
Encoding settings : -m s -V 4 -q 0 -lowpass 17 -b 128





Релиз от:




реклама партнёра


Вернуться к началу
 Профиль Отправить личное сообщение  
 
   Похожие торренты   Автор   Торрент   Размер 
В этой теме нет новых непрочитанных сообщений. Всё о мужчинах [Комедия, 2016] WEB-DLRip

salma3

7223 | 631

1.37 ГБ

В этой теме нет новых непрочитанных сообщений. Всё о мужчинах [Комедия, 2016] BDRip [Лицензия]

marya111

0 | 0

1.45 ГБ

В этой теме нет новых непрочитанных сообщений. Все о мужчинах (комедия, 2016) BDRip-AVC от New-Team | Лицензия

marya111

251 | 25

1.46 ГБ

В этой теме нет новых непрочитанных сообщений. Все о мужчинах (комедия, 2016) BDRip-AVC от New-Team | Лицензия

marya111

120 | 11

746.84 МБ

В этой теме нет новых непрочитанных сообщений. Всё о мужчинах [комедия, 2016] BDRip 720p [Лицензия]

salma3

528 | 123

4.43 ГБ

В этой теме нет новых непрочитанных сообщений. Все о мужчинах / All Bout Men (Михаил Жерневский, Леонид Марголин) [2016, Комедия , Blu-Ray Remux 1080p] [DD5.1] [Лицензия]

Враг Нароода

2 | 2

15.79 ГБ

В этой теме нет новых непрочитанных сообщений. Правда о мужчинах / Sandheden om mænd (Николай Арсель) [2010, драма, комедия, DVDRip] Sub

Nickolas3435

20 | 6

1.08 ГБ


Начать новую тему Ответить на тему  [ 1 сообщение ] 




Для Мосгорсуда, Роскомнадзора и рекламодателей:: mosgorsud-torrent[собачка]yandex.ru