Торрент файл
скачать торрент магнет ссылка Добавлен: 03 окт 2016, 00:51
Размер: 745.95 МБ
Сидеров: 0
Личеров: 0
Автор

СообщениеДобавлено: 03 окт 2016, 00:51 

Не в сети
Дата регистрации:
28 сен 2016, 18:10
Спасибо: 62 / 0
Сообщения: 1040
Информация о фильме
Название: Ночные стражи / Крылья
Год выхода: 2016
Жанр: Фэнтези, боевик
Режиссер: Эмилис Веливис
В ролях: Иван Янковский, Любовь Аксёнова, Леонид Ярмольник, Михаил Евланов, Сабина Ахмедова, Константин Адаев, Юрий Ваксман, Алексей Дмитриев, Денис Бузин, Евгений Косырев
О фильме:
Оборотни, упыри и ведьмы — существуют. Если вы до сих пор не сталкивались с ними, то это заслуга отдела по надзору за представителями альтернативной жизни.
Обычный курьер случайно становится свидетелем зачистки нечисти в одном из столичных отелей, после чего получает новую работу.
Сотрудники отдела «Н» не бессмертны, но даже вампирам они не по зубам.

Страна: Россия
Студия: Марс Медиа Энтертейнмент
Продолжительность: 01:35:28
Перевод: Не требуется
Файл
Кодек: XviD
Качество: HDTVRip
Видео: 688x288 (2.39:1), 25 fps, XviD build 73 ~954 kbps avg, 0.19 bit/pixel
Звук: 48 kHz, MPEG Layer 3, 2 ch, ~128.00 kbps avg
Субтитры: Отсутствуют
Семпл
General
Complete name : E:Изготовление рипаStragi.2016.HDTVrip by shkiper.avi
Format : AVI
Format/Info : Audio Video Interleave
File size : 746 MiB
Duration : 1h 35mn
Overall bit rate : 1 092 Kbps
Writing application : VirtualDubMod 1.5.10.3 | www.virtualdub-fr.org || (build 2550/release)
Writing library : VirtualDubMod build 2550/release
Video
ID : 0
Format : MPEG-4 Visual
Format profile : Advanced Simple@L5
Format settings, BVOP : 1
Format settings, QPel : No
Format settings, GMC : No warppoints
Format settings, Matrix : Custom
Codec ID : XVID
Codec ID/Hint : XviD
Duration : 1h 35mn
Bit rate : 955 Kbps
Width : 688 pixels
Height : 288 pixels
Display aspect ratio : 2.40:1
Frame rate : 25.000 fps
Color space : YUV
Chroma subsampling : 4:2:0
Bit depth : 8 bits
Scan type : Progressive
Compression mode : Lossy
Bits/(Pixel*Frame) : 0.193
Stream size : 652 MiB (87%)
Writing library : XviD 73
Audio
ID : 1
Format : MPEG Audio
Format version : Version 1
Format profile : Layer 3
Codec ID : 55
Codec ID/Hint : MP3
Duration : 1h 35mn
Bit rate mode : Constant
Bit rate : 128 Kbps
Channel(s) : 2 channels
Sampling rate : 48.0 KHz
Compression mode : Lossy
Stream size : 87.4 MiB (12%)
Alignment : Aligned on interleaves
Interleave, duration : 40 ms (1.00 video frame)
Interleave, preload duratio : 504 ms
Writing library : LAME3.99r
Encoding settings : -m s -V 4 -q 2 -lowpass 17 -b 128

Релиз от:




реклама партнёра


Вернуться к началу
 Профиль Отправить личное сообщение  
 
   Похожие торренты   Автор   Торрент   Размер 
В этой теме нет новых непрочитанных сообщений. Ночные стражи (фэнтези, боевик, 2016) HDTVRip-AVC

marya111

0 | 0

2.06 ГБ

В этой теме нет новых непрочитанных сообщений. Ночные стражи (Фэнтези, боевик, 2016) HDTVRip 720p

marya111

3703 | 412

2.89 ГБ

В этой теме нет новых непрочитанных сообщений. Ночные стражи (Фэнтези, боевик, 2016) HDTVRip от GeneralFilm

marya111

361 | 82

1.45 ГБ

В этой теме нет новых непрочитанных сообщений. Ночные стражи (Эмилис Веливис) [2016, Фэнтези, боевик, HDTVRip]

marya111

19004 | 1947

1.37 ГБ

В этой теме нет новых непрочитанных сообщений. Ночные стражи (фэнтези, боевик, 2016) CAMRip

marya111

0 | 0

1.37 ГБ

В этой теме нет новых непрочитанных сообщений. Ночные стражи [Фэнтези, боевик, 2016] WEB-DLRip [iTunes]

marya111

71 | 1

745.54 МБ

В этой теме нет новых непрочитанных сообщений. Ночные стражи [фэнтези, боевик, 2016] WEB-DLRip [iTunes]

marya111

426 | 15

1.46 ГБ


Начать новую тему Ответить на тему  [ 1 сообщение ] 




Для Мосгорсуда, Роскомнадзора и рекламодателей:: mosgorsud-torrent[собачка]yandex.ru