Торрент файл
скачать торрент магнет ссылка Добавлен: 02 окт 2016, 01:06
Размер: 1.45 ГБ
Сидеров: 361
Личеров: 82
Автор

СообщениеДобавлено: 02 окт 2016, 01:06 

Не в сети
Дата регистрации:
28 сен 2016, 18:10
Спасибо: 211 / 0
Сообщения: 1999
Информация о фильме
Название: Ночные стражи
Год выпуска: 2016
Жанр: Фэнтези, боевик
Режиссер: Эмилис Веливис
В ролях: Иван Янковский, Любовь Аксёнова, Леонид Ярмольник, Михаил Евланов, Сабина Ахмедова, Константин Адаев, Юрий Ваксман, Алексей Дмитриев, Денис Бузин, Евгений Косырев
О фильме:
Оборотни, упыри и ведьмы — существуют. Если вы до сих пор не сталкивались с ними, то это заслуга отдела по надзору за представителями альтернативной жизни. Обычный курьер случайно становится свидетелем зачистки нечисти в одном из столичных отелей, после чего получает новую работу. Сотрудники отдела «Н» не бессмертны, но даже вампирам они не по зубам.

Страна: Россия
Студия: Марс Медиа Энтертейнмент
Продолжительность: 01:35:27
Перевод: Не требуется (русский)
Файл
Формат: AVI
Качество: HDTVRip
Видео: XviD build 73, 720x304 (2.35:1), 25.000 fps, 1786 Kbps (0.326 bit/pixel)
Звук: 48.0 kHz, AC3 Dolby Digital, 2/0 ch, 384 kbps
General
Complete name : Nochnye.Strazhi.2016.XviD.HDTVRip.by.GeneralFilm.avi
Format : AVI
Format/Info : Audio Video Interleave
File size : 1.45 GiB
Duration : 1h 35mn
Overall bit rate : 2 180 Kbps
Writing application : VirtualDubMod 1.5.10.3 | www.virtualdub-fr.org || (build 2550/release)
Writing library : VirtualDubMod build 2550/release
Video
ID : 0
Format : MPEG-4 Visual
Format profile : Advanced Simple@L5
Format settings, BVOP : 1
Format settings, QPel : No
Format settings, GMC : No warppoints
Format settings, Matrix : Custom
Codec ID : XVID
Codec ID/Hint : XviD
Duration : 1h 35mn
Bit rate : 1 786 Kbps
Width : 720 pixels
Height : 304 pixels
Display aspect ratio : 2.35:1
Frame rate : 25.000 fps
Color space : YUV
Chroma subsampling : 4:2:0
Bit depth : 8 bits
Scan type : Progressive
Compression mode : Lossy
Bits/(Pixel*Frame) : 0.326
Stream size : 1.19 GiB (82%)
Writing library : XviD 73
Audio
ID : 1
Format : AC-3
Format/Info : Audio Coding 3
Mode extension : CM (complete main)
Format settings, Endianness : Big
Codec ID : 2000
Duration : 1h 35mn
Bit rate mode : Constant
Bit rate : 384 Kbps
Channel(s) : 2 channels
Channel positions : Front: L R
Sampling rate : 48.0 KHz
Frame rate : 31.250 fps (1536 spf)
Compression mode : Lossy
Stream size : 262 MiB (18%)
Alignment : Split accross interleaves
Interleave, duration : 40 ms (1.00 video frame)
Interleave, preload duratio : 500 ms



Релиз от:




реклама партнёра


Вернуться к началу
 Профиль Отправить личное сообщение  
 
   Похожие торренты   Автор   Торрент   Размер 
В этой теме нет новых непрочитанных сообщений. Ночные стражи ( Фэнтези, боевик, 2016) WEB-DLRip от Generalfilm | КПК | iTunes

marya111

218 | 11

402.15 МБ

В этой теме нет новых непрочитанных сообщений. Ночные стражи (фэнтези, боевик, 2016) HDTVRip-AVC

marya111

0 | 0

2.06 ГБ

В этой теме нет новых непрочитанных сообщений. Ночные стражи (Фэнтези, боевик, 2016) HDTVRip 720p

marya111

3710 | 414

2.89 ГБ

В этой теме нет новых непрочитанных сообщений. Ночные стражи (Эмилис Веливис) [2016, Фэнтези, боевик, HDTVRip]

marya111

20899 | 1990

1.37 ГБ

В этой теме нет новых непрочитанных сообщений. Ночные стражи / Крылья (Фэнтези, боевик, 2016) HDTVRip от ImperiaFilm

marya111

42 | 2

745.95 МБ

В этой теме нет новых непрочитанных сообщений. Ночные стражи (фэнтези, боевик, 2016) CAMRip

marya111

0 | 0

1.37 ГБ

В этой теме нет новых непрочитанных сообщений. Ночные стражи [фэнтези, боевик, 2016] WEB-DLRip [iTunes]

marya111

426 | 15

1.46 ГБ


Начать новую тему Ответить на тему  [ 1 сообщение ] 




Для Мосгорсуда, Роскомнадзора и рекламодателей:: mosgorsud-torrent[собачка]yandex.ru