Торрент файл
скачать торрент магнет ссылка Добавлен: 29 сен 2016, 02:38
Размер: 1.37 ГБ
Сидеров: 224
Личеров: 12
Автор

СообщениеДобавлено: 29 сен 2016, 02:38 

Не в сети
Дата регистрации:
28 сен 2016, 18:10
Спасибо: 62 / 0
Сообщения: 1040
Информация о фильме
Название: Что творят мужчины! 2
Год выхода: 2015
Жанр: Комедия
Режиссер: Сарик Андреасян
В ролях: Таир Мамедов, Роман Юнусов, Дмитрий Кожома, Никита Джигурда, Анастасия Задорожная, Пётр Винс, Вадим Цаллати, Наталья Рудова, Елена Борщёва, Елена Беркова
О фильме:
России угрожает страшная опасность! Бывший сисадмин Секретного Военного Подразделения, уехавший в Америку, запустил вирус для взлома системы безопасности, что грозит всем нам страшными последствиями. Чтобы остановить программу, нужен пароль — слово, которое произносит бывшая подружка хакера, когда испытывает оргазм. Это всего лишь одно слово, но за последний год у злодея было десяток подружек, и с каждой был секс… и все они в Лос-Анджелесе! Спасти страну призваны главные специалисты по женщинам — Даниэль, Гоша и Виталик.

Страна: Россия
Студия: Enjoy Movies
Продолжительность: 01:21:45
Перевод: Не требуется [Лицензия]
Файл
Качество: DVDRip
Кодек: XviD
Видео: 720x304 (2,35:1), 25 fps, XviD ~1942 kbps avg, 0.355 bit/pixel
Аудио: AC3, 48 kHz, 6 ch, ~448.00 kbps avg | русский |
Субтитры: Отсутствуют
Общее
Полное имя : Что творят мужчины! 2.2015.O.DVDRip.avi
Формат : AVI
Формат/Информация : Audio Video Interleave
Размер файла : 1,37 Гбайт
Продолжительность : 1 ч. 21 м.
Общий поток : 2399 Кбит/сек
Название фильма : Что творят мужчины! 2 (2015)
Режиссёр : by stillet
Библиотека кодирования : VirtualDub build 35491/release
Видео
Идентификатор : 0
Формат : MPEG-4 Visual
Профиль формата : Advanced Simple@L5
Параметр BVOP формата : 2
Параметр QPel формата : Нет
Параметр GMC формата : Без точки перехода
Параметр матрицы формата : Default (MPEG)
Режим смешивания : Сжатый битовый поток
Идентификатор кодека : XVID
Идентификатор кодека/Подсказка : XviD
Продолжительность : 1 ч. 21 м.
Битрейт : 1942 Кбит/сек
Ширина : 720 пикселей
Высота : 304 пикселя
Соотношение сторон : 2,35:1
Частота кадров : 25,000 кадров/сек
Цветовое пространство : YUV
Субдискретизация насыщенности : 4:2:0
Битовая глубина : 8 бит
Тип развёртки : Прогрессивная
Метод сжатия : С потерями
Бит/(Пиксели*Кадры) : 0.355
Размер потока : 1,11 Гбайт (81%)
Библиотека кодирования : XviD 73
Аудио
Идентификатор : 1
Формат : AC-3
Формат/Информация : Audio Coding 3
Расширение режима : CM (complete main)
Параметр Endianness формата : Big
Идентификатор кодека : 2000
Продолжительность : 1 ч. 21 м.
Вид битрейта : Постоянный
Битрейт : 448 Кбит/сек
Каналы : 6 каналов
Расположение каналов : Front: L C R, Side: L R, LFE
Частота : 48,0 КГц
Частота кадров : 31,250 кадров/сек (1536 spf)
Метод сжатия : С потерями
Размер потока : 262 Мбайт (19%)
Выравнивание : Соединение по промежуткам
Продолжительность промежутка : 40 мс. (1,00 видеокадр)
Время предзагрузки промежутка : 512 мс.




реклама партнёра


Вернуться к началу
 Профиль Отправить личное сообщение  
 
   Похожие торренты   Автор   Торрент   Размер 
В этой теме нет новых непрочитанных сообщений. Что творят мужчины! 2 (Сарик Андреасян) [Комедия, 2015] WEB-DL 720p

Dracon

11 | 4

2.63 ГБ

В этой теме нет новых непрочитанных сообщений. Что творят мужчины! 2 (Сарик Андреасян) [Комедия, 2015] Web-DLRip

Dracon

277 | 12

1.37 ГБ

В этой теме нет новых непрочитанных сообщений. Что творят мужчины! 2 (Сарик Андреасян) [Комедия, 2015] WEB-DL 1080p

Dracon

86 | 6

3.07 ГБ

В этой теме нет новых непрочитанных сообщений. Что творят мужчины! 2 [Комедия, 2015] DVDRip-AVC [Лицензия]

salma3

24 | 9

1.46 ГБ

В этой теме нет новых непрочитанных сообщений. Ограбление по-американски / American Heist (Сарик Андреасян) [триллер, криминал, драма, 2014] WEB-DLRip, Avo

Dracon

134 | 3

745 МБ

В этой теме нет новых непрочитанных сообщений. Ограбление по-американски / American Heist (Сарик Андреасян) [триллер, криминал, драма, 2014] HDRip, dub [Чистый звук]

Dracon

365 | 16

1.37 ГБ

В этой теме нет новых непрочитанных сообщений. Ограбление по-американски / American Heist (Сарик Андреасян) [триллер, криминал, драма, 2014] WEB-DLRip 720p, dub [Звук с TS]

Dracon

40 | 3

2.99 ГБ


Начать новую тему Ответить на тему  [ 1 сообщение ] 




Для Мосгорсуда, Роскомнадзора и рекламодателей:: mosgorsud-torrent[собачка]yandex.ru