Торрент файл
скачать торрент магнет ссылка Добавлен: 29 сен 2016, 02:37
Размер: 1.52 ГБ
Сидеров: 0
Личеров: 0
Автор

СообщениеДобавлено: 29 сен 2016, 02:37 

Не в сети
Дата регистрации:
28 сен 2016, 18:10
Спасибо: 57 / 0
Сообщения: 945
Информация о фильме
Оригинальное название: Путевка в жизнь
Год выпуска: 2014
Жанр: Приключения
Режиссер: Олег Галин
В ролях: Илья Плисов, Александр Лобанов, Сергей Гармаш, Клавдия Коршунова, Олег Алмазов, Дмитрий Ермак, Александра Шевченко, Ольга Баранова, Иван Косичкин
О фильме: Семья Ряхиных оформляет опекунство над детдомовцем Ромой Бегунковым. Однако радость мальчика оказывается преждевременной, ведь в новом доме его используют в качестве прислуги и бесплатной рабочей силы. Единственным верным другом для подростка оказывается щенок по кличке Плут. Однако и питомец страдает от жестоких хозяев. Рома не выдерживает и поздним дождливым вечером, прихватив Плута, сбегает из ненавистного дома. Мальчик по случайности попадает на полигон местной воинской части, где проходят учения. Там он получает травму, и Бегункова временно размещают в гарнизоне. С этого дня Рома вынужден придерживаться строгого армейского распорядка и беспрекословно выполнять задания. Там же он знакомится с дочерью командира Соломатина Светой. Эта встреча пробуждает незнакомые для него чувства. Впрочем, главное испытание для Ромы ещё впереди, ведь его приёмного отца вынудили похитить электронную мину из воинской части, которая приютила подростка...

Выпущено: Россия, Студия Стелла
Продолжительность: 01:38:51
Перевод: Не требуется
Файл
Качество: WEB-DLRip (AVC)
Видео: MPEG-4 AVC, 2014 Кбит/с, 1024x434
Аудио: AC3, 2 ch, 192 Кбит/с
General
Unique ID : 226173318888161078208518262181496820432 (0xAA2765913304584AB230D08BA3A312D0)
Complete name : E:Pytevka.v.giznj.2014.AVC.ExKinoRay.mkv
Format : Matroska
Format version : Version 2
File size : 1.52 GiB
Duration : 1 h 38 min
Overall bit rate : 2 208 kb/s
Movie name : Путевка в жизнь 2014 from ExKinoRay
Encoded date : UTC 2016-08-28 19:48:29
Writing application : mkvmerge v7.6.0 ('Garden of Dreams') 32bit built on Feb 11 2015 00:18:47
Writing library : libebml v1.3.1 + libmatroska v1.4.2
Video
ID : 1
Format : AVC
Format/Info : Advanced Video Codec
Format profile : High@L4.1
Format settings, CABAC : Yes
Format settings, ReFrames : 10 frames
Codec ID : V_MPEG4/ISO/AVC
Duration : 1 h 38 min
Bit rate : 2 014 kb/s
Width : 1 024 pixels
Height : 434 pixels
Display aspect ratio : 2.35:1
Frame rate mode : Constant
Frame rate : 25.000 FPS
Color space : YUV
Chroma subsampling : 4:2:0
Bit depth : 8 bits
Scan type : Progressive
Bits/(Pixel*Frame) : 0.181
Stream size : 1.36 GiB (89%)
Title : Enigma
Writing library : x264 core 144 r2525 40bb568
Encoding settings : cabac=1 / ref=10 / deblock=1:-2:-2 / analyse=0x3:0x113 / me=umh / subme=10 / psy=1 / psy_rd=1.00:0.10 / mixed_ref=1 / me_range=32 / chroma_me=1 / trellis=2 / 8x8dct=1 / cqm=0 / deadzone=21,11 / fast_pskip=0 / chroma_qp_offset=-3 / threads=12 / lookahead_threads=2 / sliced_threads=0 / nr=0 / decimate=0 / interlaced=0 / bluray_compat=0 / constrained_intra=0 / bframes=9 / b_pyramid=2 / b_adapt=2 / b_bias=0 / direct=3 / weightb=1 / open_gop=0 / weightp=2 / keyint=250 / keyint_min=25 / scenecut=40 / intra_refresh=0 / rc_lookahead=40 / rc=2pass / mbtree=0 / bitrate=2014 / ratetol=1.0 / qcomp=0.60 / qpmin=0 / qpmax=51 / qpstep=4 / cplxblur=20.0 / qblur=0.5 / vbv_maxrate=50000 / vbv_bufsize=62500 / nal_hrd=none / filler=0 / ip_ratio=1.40 / pb_ratio=1.30 / aq=1:1.00
Default : Yes
Forced : No
Color range : Limited
Color primaries : BT.709
Transfer characteristics : BT.709
Matrix coefficients : BT.709
Audio
ID : 2
Format : AC-3
Format/Info : Audio Coding 3
Mode extension : CM (complete main)
Format settings, Endianness : Big
Codec ID : A_AC3
Duration : 1 h 38 min
Bit rate mode : Constant
Bit rate : 192 kb/s
Channel(s) : 2 channels
Channel positions : Front: L R
Sampling rate : 44.1 kHz
Frame rate : 28.711 FPS (1536 spf)
Compression mode : Lossy
Stream size : 136 MiB (9%)
Language : Russian
Default : Yes
Forced : No




реклама партнёра


Вернуться к началу
 Профиль Отправить личное сообщение  
 
   Похожие торренты   Автор   Торрент   Размер 
В этой теме нет новых непрочитанных сообщений. Путевка в жизнь (Олег Галин) [2014, Приключения, WEB-DLRip]

marya111

0 | 0

1.37 ГБ

В этой теме нет новых непрочитанных сообщений. Путевка в жизнь (Олег Галин) [2013, Приключения, SATRip]

marya111

4 | 1

1.29 ГБ

В этой теме нет новых непрочитанных сообщений. Пятницкий. Глава четвертая [01-32 из 32] (Григорий Фёдоров, Олег Галин) [Драма, криминал, 2014] HDTVRip

Dracon

391 | 261

17.19 ГБ

В этой теме нет новых непрочитанных сообщений. Пятницкий. Глава четвёртая [01-32 из 32 + Послесловие] (Григорий Фёдоров, Олег Галин) [Драма, криминал, 2014] HDTVRip 720p

Dracon

38 | 75

50.5 ГБ

В этой теме нет новых непрочитанных сообщений. Маша и Медведь. Машкины страшилки [01-05] (Олег Ужинов, Денис Червяцов, Олег Кузовков) [Мультсериал, детский, приключения, комедия. 2014-2015] DVDRip-AVC, WEB-DLRip-AVC

Dracon

306 | 68

436.13 МБ

В этой теме нет новых непрочитанных сообщений. Двойная жизнь [01-10 из 10] [Мелодрама, 2014] WEB-DLRip

Dracon

238 | 46

5.87 ГБ

В этой теме нет новых непрочитанных сообщений. Маша и медведь: На круги своя [53] (Олег Кузовков, Олег Ужинов, Денис Червяцов) [Мультсериал, сказка, детский, семейный, 2015] WEB-DLRip

Dracon

1966 | 37

98.7 МБ


Начать новую тему Ответить на тему  [ 1 сообщение ] 




Для Мосгорсуда, Роскомнадзора и рекламодателей:: mosgorsud-torrent[собачка]yandex.ru