Торрент файл
скачать торрент магнет ссылка Добавлен: 29 сен 2016, 02:37
Размер: 1.37 ГБ
Сидеров: 1881
Личеров: 65
Автор

СообщениеДобавлено: 29 сен 2016, 02:37 

Не в сети
Дата регистрации:
28 сен 2016, 18:10
Спасибо: 64 / 0
Сообщения: 1040
Информация о фильме
Название: Простая история
Год выхода: 2016
Жанр: Боевик, военный, драма, мелодрама
Режиссер: Виктор Татарский
В ролях: Сергей Марин, Анастасия Тюнина, Екатерина Проскурина, Михаил Елисеев, Евгений Сидихин, Юсуп Бахшиев, Евгений Добряков, Алексей Красноцветов, Дмитрий Быковский-Ромашов
О фильме:
Вячеслав Воробьев — боец особого подразделения ОМОН. По стечению обстоятельств после одного из спецзаданий сослуживцы и командиры начинают подозревать Вячеслава в гибели товарища. Желая реабилитироваться перед ними и вновь заслужить доверие, главный герой вызывается во внеочередную опасную командировку в город Назрань. Там он знакомится с девушкой Наташей, в которую влюбляется с первого взгляда. Наташа принимает ухаживания молодого человека, и у них завязываются отношения. Но Слава скрывает место своей работы и цели командировки. Правду Наташа узнает только в тот момент, когда Слава отправляется на самое опасное боевое задание в своей жизни.

Страна: Россия
Студия: Фонд кино
Продолжительность: 01:30:02
Перевод: Не требуется
Файл
Качество: WEB-DLRip
Кодек: XviD
Видео: 720x304 (2,35:1), 25 fps, XviD ~1972 Кbps avg, 0.360 bit/pixel
Аудио: AC3, 48 kHz, 2 ch, ~192.00 kbps avg | русский
Субтитры: Отсутствуют
Семпл
Общее
Полное имя : Prostaya.istoriya.2O16.WEBDLRip.avi
Формат : AVI
Формат/Информация : Audio Video Interleave
Размер файла : 1,37 Гбайт
Продолжительность : 1 ч. 30 м.
Общий поток : 2173 Кбит/сек
Программа кодирования : VirtualDubMod 1.5.10.3 | www.virtualdub-fr.org || (build 2550/release)
Библиотека кодирования : VirtualDubMod build 2550/release
Видео
Идентификатор : 0
Формат : MPEG-4 Visual
Профиль формата : Advanced Simple@L5
Параметр BVOP формата : 2
Параметр QPel формата : Нет
Параметр GMC формата : Без точки перехода
Параметр матрицы формата : Default (MPEG)
Идентификатор кодека : XVID
Идентификатор кодека/Подсказка : XviD
Продолжительность : 1 ч. 30 м.
Битрейт : 1972 Кбит/сек
Ширина : 720 пикселей
Высота : 304 пикселя
Соотношение сторон : 2,35:1
Частота кадров : 25,000 кадров/сек
Цветовое пространство : YUV
Субдискретизация насыщенности : 4:2:0
Битовая глубина : 8 бит
Тип развёртки : Прогрессивная
Метод сжатия : С потерями
Бит/(Пиксели*Кадры) : 0.360
Размер потока : 1,24 Гбайт (91%)
Библиотека кодирования : XviD 1.2.1 (UTC 2008-12-04)
Аудио
Идентификатор : 1
Формат : AC-3
Формат/Информация : Audio Coding 3
Расширение режима : CM (complete main)
Параметр Endianness формата : Big
Идентификатор кодека : 2000
Продолжительность : 1 ч. 30 м.
Вид битрейта : Постоянный
Битрейт : 192 Кбит/сек
Каналы : 2 канала
Расположение каналов : Front: L R
Частота : 48,0 КГц
Частота кадров : 31,250 кадров/сек (1536 spf)
Метод сжатия : С потерями
Размер потока : 124 Мбайт (9%)
Выравнивание : Разделение по промежуткам
Продолжительность промежутка : 40 мс. (1,00 видеокадр)
Время предзагрузки промежутка : 500 мс.




реклама партнёра


Вернуться к началу
 Профиль Отправить личное сообщение  
 
   Похожие торренты   Автор   Торрент   Размер 
В этой теме нет новых непрочитанных сообщений. Простая история (Виктор Татарский) [2016, Боевик, военный, драма, WEB-DLRip]

marya111

47 | 5

749.93 МБ

В этой теме нет новых непрочитанных сообщений. Повторный После Валькирии: Рассвет четвертого Рейха (боевик, военный, история, 2016) WEB-DLRip | iTunes Данный торрент является блокированным, причина: повторный торрент

marya111

0 | 0

1.37 ГБ

В этой теме нет новых непрочитанных сообщений. После Валькирии: Рассвет четвертого Рейха [боевик, военный, история, 2016] WEB-DLRip-AVC, Mvo [iTunes]

marya111

178 | 29

1.36 ГБ

В этой теме нет новых непрочитанных сообщений. Война и мир / War and Peace [01х01-06 из 06] (Том Харпер) [2016, Драма, мелодрама, военный, история, WEB-DL 720p | NewStudio]

Dracon

19 | 8

12.95 ГБ

В этой теме нет новых непрочитанных сообщений. Война и мир / War and Peace [01х01-06 из 06] (Том Харпер) [2016, Драма, мелодрама, военный, история, WEB-DL 1080p | Вaibako]

Dracon

28 | 5

18.72 ГБ

В этой теме нет новых непрочитанных сообщений. Война и мир / War and Peace [01х01-06 из 06] (Том Харпер) [2016, Драма, мелодрама, военный, история, WEB-DL 1080p | NewStudio]

Dracon

88 | 66

17.48 ГБ

В этой теме нет новых непрочитанных сообщений. Война и мир / War and Peace [01х01-06 из 06] (Том Харпер) [2016, Драма, мелодрама, военный, история, WEB-DL 720p | Вaibako]

Dracon

10 | 6

14.28 ГБ


Начать новую тему Ответить на тему  [ 1 сообщение ] 




Для Мосгорсуда, Роскомнадзора и рекламодателей:: mosgorsud-torrent[собачка]yandex.ru