Торрент файл
скачать торрент магнет ссылка Добавлен: 29 сен 2016, 02:37
Размер: 746.1 МБ
Сидеров: 30
Личеров: 0
Автор

СообщениеДобавлено: 29 сен 2016, 02:37 

Не в сети
Дата регистрации:
28 сен 2016, 18:10
Спасибо: 211 / 0
Сообщения: 1999
Информация о фильме
Название: Сибирский траффик
Год выхода: 2015
Жанр: Боевик, криминал
Режиссер: Сергей Грозных
В ролях: Николай Устинов, Анна Захарова, Олег Захаров, Елена Бессмертная, Екатерина Спирина, Михаил Попов, Равиль Валиев, Евгений Писанков...
О фильме:
Офицер в отставке Руслан Бероев выходит на пенсию, и казалось, что суровые будни закончены. Один за другим начинают пропадать сотрудники спецотдела и бывший сослуживец просит Руслана о помощи в раскрытии преступлений. Бероев не ожидал, что эта помощь обернётся для него войной, войной за себя, за свою семью и свою страну.


Страна: Россия
Студия: КиноОлимп, Сибирь
Продолжительность: 01:29:18
Файл
Кодек: XviD (AVI)
Качество: WEB-DLRip
Видео: 688x288 (2.40:1), 25 fps, XviD build 73 ~1030 kbps avg, 0.208 bit/pixel
Звук: 48 kHz, MPEG Layer 3, 2 ch, ~128.00 kbps avg
General
Complete name : Sibirskij.Traffik.2015.XviD.WEB-DLRip.by.GeneralFilm.avi
Format : AVI
Format/Info : Audio Video Interleave
File size : 746 MiB
Duration : 1h 29mn
Overall bit rate : 1 168 Kbps
Writing application : VirtualDubMod 1.5.10.3 | www.virtualdub-fr.org || (build 2550/release)
Writing library : VirtualDubMod build 2550/release
Video
ID : 0
Format : MPEG-4 Visual
Format profile : Advanced Simple@L5
Format settings, BVOP : 1
Format settings, QPel : No
Format settings, GMC : No warppoints
Format settings, Matrix : Custom
Codec ID : XVID
Codec ID/Hint : XviD
Duration : 1h 29mn
Bit rate : 1 030 Kbps
Width : 688 pixels
Height : 288 pixels
Display aspect ratio : 2.40:1
Frame rate : 25.000 fps
Color space : YUV
Chroma subsampling : 4:2:0
Bit depth : 8 bits
Scan type : Progressive
Compression mode : Lossy
Bits/(Pixel*Frame) : 0.208
Stream size : 658 MiB (88%)
Writing library : XviD 73
Audio
ID : 1
Format : MPEG Audio
Format version : Version 1
Format profile : Layer 3
Codec ID : 55
Codec ID/Hint : MP3
Duration : 1h 29mn
Bit rate mode : Constant
Bit rate : 128 Kbps
Channel(s) : 2 channels
Sampling rate : 44.1 KHz
Compression mode : Lossy
Stream size : 81.8 MiB (11%)
Alignment : Split accross interleaves
Interleave, duration : 40 ms (1.00 video frame)
Interleave, preload duratio : 500 ms
Writing library : LAME3.99r
Encoding settings : -m s -V 4 -q 0 -lowpass 17 -b 128




реклама партнёра


Вернуться к началу
 Профиль Отправить личное сообщение  
 
   Похожие торренты   Автор   Торрент   Размер 
В этой теме нет новых непрочитанных сообщений. Сибирский траффик (Сергей Грозных) [2015, Боевик, криминал, WEB-DLRip-AVC]

marya111

0 | 0

1.22 ГБ

В этой теме нет новых непрочитанных сообщений. Сибирский траффик [Боевик, криминал, 2015] WEB-DLRip

salma3

3143 | 281

1.37 ГБ

В этой теме нет новых непрочитанных сообщений. Сибирский дед [боевик, приключения, 1973] VHSRip

salma3

14 | 4

1.37 ГБ

В этой теме нет новых непрочитанных сообщений. Морские дьяволы. Смерч [02x01-62 из 64] (Сергей Винокуров, Евгений Малков...) [Боевик, детектив, криминал, 2015] SATRip

Dracon

19 | 7

33.32 ГБ

В этой теме нет новых непрочитанных сообщений. Морские дьяволы. Смерч [02x33-64 из 64] (Сергей Винокуров, Евгений Малков...) [Боевик, детектив, криминал, 2015] SATRip

Dracon

39 | 8

18.88 ГБ

В этой теме нет новых непрочитанных сообщений. Рэкетир 2 [боевик, драма, криминал, 2015] WEB-DLRip

marya111

565 | 112

1.46 ГБ

В этой теме нет новых непрочитанных сообщений. Нулевая терпимость / Zero Tolerance [боевик, триллер, криминал, 2015] WEB-DLRip, Dvo

salma3

118 | 8

749.88 МБ


Начать новую тему Ответить на тему  [ 1 сообщение ] 




Для Мосгорсуда, Роскомнадзора и рекламодателей:: mosgorsud-torrent[собачка]yandex.ru