Торрент файл
скачать торрент магнет ссылка Добавлен: 24 сен 2016, 01:12
Размер: 1.46 ГБ
Сидеров: 3232
Личеров: 395
Статус: (salma3)
Автор

СообщениеДобавлено: 24 сен 2016, 01:12 

Не в сети
Супермодератор
Аватара пользователя
Дата регистрации:
15 фев 2012, 16:44
Возраст: 27
Спасибо: 5121 / 2089
Сообщения: 17274
Формат: WEB-DLRip-AVC, MKV, H.264, AC3
Режиссер: Николай Кудряшов
Жанр: боевик, драма
Продолжительность: 01:22:46
Год выпуска: 2016

В ролях: Николай Кудряшов, Денис Никифоров, Ян Цапник, Владимир Епифанцев, Наталия Власова (II), Максим Коновалов, Андрей Семёнов, Михаил Малютин, Александр Шлеменко, Олег Гаас, Ольга Павлюкова, Михаил Грубов, Марина Даминева, Яна Енжаева, Оксана Базилевич

Описание: Прямоугольный ринг и две команды бойцов друг напротив друга. Когда силы кончаются, товарища сменяет тот, кто за спиной…
Это – Спарта! Новый зрелищный вид единоборств. «Спарта» для бывшего чемпиона по боям без правил Николая – единственная возможность вернуться в большой спорт и решить все проблемы, которые свалились на него три года назад: драка за честь подруги и тюрьма, предательство возлюбленной и отказ тренера в возвращении в команду. Вместе с верными друзьями спортсмен готов бросить вызов всему миру, и ставкой в бои станет его будущая жизнь.





Видео: 1024x436 (2.35:1), 25.000 fps, MPEG4 AVC (х264) , ~ 2145 kbps avg, 0.192 bit/pixel
Аудио: 48 kHz, AC3 Dolby Digital, 3/2 (L,C,R,l,r) + LFE ch, ~384.00 kbps avg
General
Unique ID : 225256227721024844697325143516663212621 (0xA976C57B4E8D9FC9A85AAB623A7F6A4D)
Complete name : E:Sparta.2016.WEB-DLRip-AVC.by.mkv
Format : Matroska
Format version : Version 4 / Version 2
File size : 1.46 GiB
Duration : 1 h 22 min
Overall bit rate : 2 531 kb/s
Movie name : Sparta.2016.WEB-DLRip-AVC.by.White Smoke.R.G.Resident.mkv
Encoded date : UTC 2016-09-23 04:13:58
Writing application : mkvmerge v6.8.0 ('Theme for Great Cities') 64bit built on Mar 2 2014 21:34:26
Writing library : libebml v1.3.0 + libmatroska v1.4.1

Video
ID : 1
Format : AVC
Format/Info : Advanced Video Codec
Format profile :
Format settings, CABAC : Yes
Format settings, ReFrames : 12 frames
Codec ID : V_MPEG4/ISO/AVC
Duration : 1 h 22 min
Bit rate : 2 145 kb/s
Width : 1 024 pixels
Height : 436 pixels
Display aspect ratio : 2.35:1
Frame rate mode : Constant
Frame rate : 25.000 FPS
Color space : YUV
Chroma subsampling : 4:2:0
Bit depth : 8 bits
Scan type : Progressive
Bits/(Pixel*Frame) : 0.192
Stream size : 1.21 GiB (83%)
Writing library : x264 core 148 r2638 7599210
Encoding settings : cabac=1 / ref=12 / deblock=1:-3:-3 / analyse=0x3:0x113 / me=umh / subme=9 / psy=1 / psy_rd=1.00:0.00 / mixed_ref=1 / me_range=32 / chroma_me=1 / trellis=2 / 8x8dct=1 / cqm=0 / deadzone=21,11 / fast_pskip=1 / chroma_qp_offset=-2 / threads=12 / lookahead_threads=3 / sliced_threads=0 / nr=0 / decimate=1 / interlaced=0 / bluray_compat=0 / constrained_intra=0 / bframes=12 / b_pyramid=2 / b_adapt=2 / b_bias=10 / direct=1 / weightb=0 / open_gop=0 / weightp=2 / keyint=250 / keyint_min=25 / scenecut=40 / intra_refresh=0 / rc_lookahead=40 / rc=2pass / mbtree=1 / bitrate=2145 / ratetol=1.0 / qcomp=0.85 / qpmin=0 / qpmax=69 / qpstep=4 / cplxblur=20.0 / qblur=0.5 / ip_ratio=1.40 / aq=1:1.00
Language : English
Default : Yes
Forced : No

Audio
ID : 2
Format : AC-3
Format/Info : Audio Coding 3
Mode extension : CM (complete main)
Format settings, Endianness : Big
Codec ID : A_AC3
Duration : 1 h 22 min
Bit rate mode : Constant
Bit rate : 384 kb/s
Channel(s) : 6 channels
Channel positions : Front: L C R, Side: L R, LFE
Sampling rate : 48.0 kHz
Frame rate : 31.250 FPS (1536 spf)
Compression mode : Lossy
Stream size : 227 MiB (15%)
Language : Russian
Default : Yes
Forced : No




_________________



реклама партнёра


Вернуться к началу
 Профиль Отправить личное сообщение  
 
   Похожие торренты   Автор   Торрент   Размер 
В этой теме нет новых непрочитанных сообщений. Спарта [боевик, драма, 2016] WEB-DLRip

salma3

775 | 39

1.37 ГБ

В этой теме нет новых непрочитанных сообщений. Спарта (Николай Кудряшов) [2016, Боевик, драма, WEB-DLRip-AVC | iTunes]

marya111

349 | 26

749.65 МБ

В этой теме нет новых непрочитанных сообщений. Спарта (Николай Кудряшов) [2016, боевик, драма, WEB-DLRip | iTunes]

marya111

0 | 0

1.46 ГБ

В этой теме нет новых непрочитанных сообщений. Скорпион / Scorpion [03x01-06 из 24] (Драма, боевик, 2016) WEB-DLRip | IdeaFilm

marya111

0 | 0

3.24 ГБ

В этой теме нет новых непрочитанных сообщений. Скорпион / Scorpion [03x01-07 из 24] (Драма, боевик, 2016) WEB-DLRip | IdeaFilm

marya111

0 | 0

3.82 ГБ

В этой теме нет новых непрочитанных сообщений. Скорпион / Scorpion [03x01-05 из 24] ( Драма, боевик, 2016) WEB-DLRip | IdeaFilm

marya111

0 | 0

2.69 ГБ

В этой теме нет новых непрочитанных сообщений. Султан / Sultan [Боевик, драма, мелодрама, спорт, 2016] WEB-DLRip 720p, Dvo+Sub

salma3

801 | 51

1.65 ГБ


Начать новую тему Ответить на тему  [ 1 сообщение ] 




Для Мосгорсуда, Роскомнадзора и рекламодателей:: mosgorsud-torrent[собачка]yandex.ru