Торрент файл
скачать торрент магнет ссылка Добавлен: 24 сен 2016, 01:08
Размер: 1.37 ГБ
Сидеров: 775
Личеров: 39
Статус: (salma3)
Автор

СообщениеДобавлено: 24 сен 2016, 01:08 

Не в сети
Супермодератор
Аватара пользователя
Дата регистрации:
15 фев 2012, 16:44
Возраст: 27
Спасибо: 5143 / 2090
Сообщения: 17478
Формат: WEB-DLRip, AVI, XviD, AC3
Режиссер: Николай Кудряшов
Жанр: боевик, драма
Продолжительность: 01:20:29
Год выпуска: 2016

В ролях: Николай Кудряшов, Денис Никифоров, Ян Цапник, Владимир Епифанцев, Максим Коновалов, Андрей Семенов, Михаил Малютин, Александр Шлеменко, Наталия Власова

Описание:
Прямоугольный ринг и две команды бойцов друг напротив друга. Когда силы кончаются, товарища сменяет тот, кто за спиной… Это — Спарта! Новый зрелищный вид единоборств. «Спарта» для бывшего чемпиона по боям без правил Николая — единственная возможность вернуться в большой спорт и решить все проблемы, которые свалились на него три года назад: драка за честь подруги и тюрьма, предательство возлюбленной и отказ тренера в возвращении в команду. Вместе с верными друзьями спортсмен готов бросить вызов всему миру, и ставкой в бои станет его будущая жизнь.



Видео: 720x304 (2.35:1), 25 fps, XviD MPEG-4 ~1971 kbps avg, 0.360 bit/pixel
Аудио: 48 kHz, АС3, 6 ch, (Front: L C R, Side: L R, LFE) ~384.00 kbps avg

Общее
Полное имя : C:\Users\Downloads\SparTA.21O6.WEB-DLRip.14OOMB_KOSHARA.avi
Формат : AVI
Формат/Информация : Audio Video Interleave
Размер файла : 1,37 Гбайт
Продолжительность : 1 ч. 22 м.
Общий поток : 2365 Кбит/сек
Программа кодирования : VirtualDubMod 1.5.10.2 (build 2540/release)
Библиотека кодирования : VirtualDubMod build 2540/release

Видео
Идентификатор : 0
Формат : MPEG-4 Visual
Профиль формата : Advanced Simple@L5
Параметр BVOP формата : 2
Параметр QPel формата : Нет
Параметр GMC формата : Без точки перехода
Параметр матрицы формата : Default (MPEG)
Идентификатор кодека : XVID
Идентификатор кодека/Подсказка : XviD
Продолжительность : 1 ч. 22 м.
Битрейт : 1971 Кбит/сек
Ширина : 720 пикселей
Высота : 304 пикселя
Соотношение сторон : 2,35:1
Частота кадров : 25,000 кадров/сек
Цветовое пространство : YUV
Субдискретизация насыщенности : 4:2:0
Битовая глубина : 8 бит
Тип развёртки : Прогрессивная
Метод сжатия : С потерями
Бит/(Пиксели*Кадры) : 0.360
Размер потока : 1,14 Гбайт (83%)
Библиотека кодирования : XviD 1.2.1 (UTC 2008-12-04)

Аудио
Идентификатор : 1
Формат : AC-3
Формат/Информация : Audio Coding 3
Расширение режима : CM (complete main)
Параметр Endianness формата : Big
Идентификатор кодека : 2000
Продолжительность : 1 ч. 22 м.
Вид битрейта : Постоянный
Битрейт : 384 Кбит/сек
Каналы : 6 каналов
Расположение каналов : Front: L C R, Side: L R, LFE
Частота : 48,0 КГц
Битовая глубина : 16 бит
Метод сжатия : С потерями
Размер потока : 227 Мбайт (16%)
Выравнивание : Разделение по промежуткам
Продолжительность промежутка : 40 мс. (1,00 видеокадр)
Время предзагрузки промежутка : 500 мс.




_________________



реклама партнёра


Вернуться к началу
 Профиль Отправить личное сообщение  
 
   Похожие торренты   Автор   Торрент   Размер 
В этой теме нет новых непрочитанных сообщений. Спарта [боевик, драма, 2016] WEB-DLRip-AVC

salma3

3232 | 395

1.46 ГБ

В этой теме нет новых непрочитанных сообщений. Спарта (Николай Кудряшов) [2016, боевик, драма, WEB-DLRip | iTunes]

marya111

0 | 0

1.46 ГБ

В этой теме нет новых непрочитанных сообщений. Спарта (Николай Кудряшов) [2016, Боевик, драма, WEB-DLRip-AVC | iTunes]

marya111

349 | 26

749.65 МБ

В этой теме нет новых непрочитанных сообщений. Стрелок / Shooter [01x01-04 из 12] (Боевик, драма, 2016) WEB-DLRip | IdeaFilm

marya111

45 | 67

2.23 ГБ

В этой теме нет новых непрочитанных сообщений. Скорпион / Scorpion [03x01-05 из 24] ( Драма, боевик, 2016) WEB-DLRip | IdeaFilm

marya111

0 | 0

2.69 ГБ

В этой теме нет новых непрочитанных сообщений. Скорпион / Scorpion [03x01-06 из 24] (Драма, боевик, 2016) WEB-DLRip | IdeaFilm

marya111

0 | 0

3.24 ГБ

В этой теме нет новых непрочитанных сообщений. Скорпион / Scorpion [03x01-07 из 24] (Драма, боевик, 2016) WEB-DLRip | IdeaFilm

marya111

0 | 0

3.82 ГБ


Начать новую тему Ответить на тему  [ 1 сообщение ] 




Для Мосгорсуда, Роскомнадзора и рекламодателей:: mosgorsud-torrent[собачка]yandex.ru