Торрент файл
скачать торрент магнет ссылка Добавлен: 24 сен 2016, 01:05
Размер: 1.36 ГБ
Сидеров: 1096
Личеров: 105
Статус: (salma3)
Автор

СообщениеДобавлено: 24 сен 2016, 01:05 

Не в сети
Супермодератор
Аватара пользователя
Дата регистрации:
15 фев 2012, 16:44
Возраст: 27
Спасибо: 5139 / 2089
Сообщения: 17429
Формат: SATRip, AVI, XviD, AC3
Режиссер: Ольга Грекова
Жанр: мелодрама
Продолжительность: 01:28:22
Год выпуска: 2016

В ролях: Олеся Фаттахова, Алёна Созинова, Петар Зекавица, Сергей Губанов, Вячеслав Дробинков, Николай Сахаров, Марина Дианова, Арина Постникова, Анна Данькова, Людмила Кожевникова, Анастасия Ильина, Татьяна Плетнёва

Описание:
Вера – благополучная во всех отношениях барышня. Ей повезло в жизни: сначала с понимающими и любящими родителями, а потом с мужем – её Денис мог бы стать предметом зависти Вериных подруг, если бы они у неё были. Но подруг нет – мир крутится вокруг Дениса, его желаний, его интересов. Ради мужа Вера даже бросила медицинский институт. Но неожиданно супруг уходит к другой девушке. Несколько лет назад, чтобы жениться на Вере, Денис оставил первую жену Анну. Чтобы раз и навсегда выяснить отношения, Вера идёт к сопернице из прошлого и узнаёт, что Анна после ДТП стала инвалидом. Между девушками завязывается дружба, которая злит Дениса – он предпочитает, чтобы все его бывшие пассии страдали в одиночестве…



Видео: 720x400 (16:9), 25 fps, XviD MPEG-4 ~2006 kbps avg, 0.279 bit/pixel
Аудио: 48 kHz, АС3, 2 ch, (Front: L R) ~192.00 kbps avg

Общее
Полное имя : C:\Users\Downloads\Призрак на двоих.2016.SATRip.Files-x.avi
Формат : AVI
Формат/Информация : Audio Video Interleave
Размер файла : 1,36 Гбайт
Продолжительность : 1 ч. 28 м.
Общий поток : 2208 Кбит/сек
Программа кодирования : VirtualDubMod 1.5.10.3 | www.virtualdub-fr.org || (build 2550/release)
Библиотека кодирования : VirtualDubMod build 2550/release

Видео
Идентификатор : 0
Формат : MPEG-4 Visual
Профиль формата : Advanced Simple@L5
Параметр BVOP формата : 1
Параметр QPel формата : Нет
Параметр GMC формата : Без точки перехода
Параметр матрицы формата : Выборочная
Идентификатор кодека : XVID
Идентификатор кодека/Подсказка : XviD
Продолжительность : 1 ч. 28 м.
Битрейт : 2006 Кбит/сек
Ширина : 720 пикселей
Высота : 400 пикселей
Соотношение сторон : 16:9
Частота кадров : 25,000 кадров/сек
Цветовое пространство : YUV
Субдискретизация насыщенности : 4:2:0
Битовая глубина : 8 бит
Тип развёртки : Прогрессивная
Метод сжатия : С потерями
Бит/(Пиксели*Кадры) : 0.279
Размер потока : 1,24 Гбайт (91%)
Библиотека кодирования : XviD 73

Аудио
Идентификатор : 1
Формат : AC-3
Формат/Информация : Audio Coding 3
Расширение режима : CM (complete main)
Параметр Endianness формата : Big
Идентификатор кодека : 2000
Продолжительность : 1 ч. 28 м.
Вид битрейта : Постоянный
Битрейт : 192 Кбит/сек
Каналы : 2 канала
Расположение каналов : Front: L R
Частота : 48,0 КГц
Битовая глубина : 16 бит
Метод сжатия : С потерями
Размер потока : 121 Мбайт (9%)
Выравнивание : Разделение по промежуткам
Продолжительность промежутка : 40 мс. (1,00 видеокадр)
Время предзагрузки промежутка : 500 мс.



_________________



реклама партнёра


Вернуться к началу
 Профиль Отправить личное сообщение  
 
   Похожие торренты   Автор   Торрент   Размер 
В этой теме нет новых непрочитанных сообщений. Призрак на двоих (Мелодрама, 2016) WEB-DLRip

marya111

84 | 7

1.37 ГБ

В этой теме нет новых непрочитанных сообщений. Призрак на двоих (Мелодрама, 2016) WEB-DLRip от MegaPeer

marya111

131 | 0

745.36 МБ

В этой теме нет новых непрочитанных сообщений. Призрак на двоих (Мелодрама, 2016) WEB-DLRip-AVC от Files-x

marya111

0 | 0

1.37 ГБ

В этой теме нет новых непрочитанных сообщений. Мир для двоих [01-04 из 04] [Мелодрама, 2014] SATRip

Dracon

397 | 70

2.1 ГБ

В этой теме нет новых непрочитанных сообщений. Брюнетку на двоих [2016 г., Amateur, Homemade, All Sex, CamRip]

Dievas

10 | 1

138.79 МБ

В этой теме нет новых непрочитанных сообщений. За нас двоих / A nous deux [мелодрама, криминал, 1979] DVDRip-AVC, Mvo+Sub

salma3

5 | 3

1.45 ГБ

В этой теме нет новых непрочитанных сообщений. За нас двоих / A nous deux [мелодрама, криминал, 1979] DVD5, Mvo+Sub

salma3

2 | 4

4.36 ГБ


Начать новую тему Ответить на тему  [ 1 сообщение ] 




Для Мосгорсуда, Роскомнадзора и рекламодателей:: mosgorsud-torrent[собачка]yandex.ru