Торрент файл
скачать торрент магнет ссылка Добавлен: 21 сен 2016, 11:10
Размер: 1.46 ГБ
Сидеров: 24
Личеров: 9
Статус: (salma3)
Автор

СообщениеДобавлено: 21 сен 2016, 11:10 

Не в сети
Супермодератор
Аватара пользователя
Дата регистрации:
15 фев 2012, 16:44
Возраст: 27
Спасибо: 5139 / 2089
Сообщения: 17425
Год выхода: 2015
Жанр: Комедия
Режиссер: Сарик Андреасян

В ролях: Таир Мамедов, Роман Юнусов, Дмитрий Кожома, Никита Джигурда, Анастасия Задорожная, Пётр Винс, Вадим Цаллати, Наталья Рудова, Елена Борщёва, Елена Беркова

О фильме:
России угрожает страшная опасность! Бывший сисадмин Секретного Военного Подразделения, уехавший в Америку, запустил вирус для взлома системы безопасности, что грозит всем нам страшными последствиями. Чтобы остановить программу, нужен пароль — слово, которое произносит бывшая подружка хакера, когда испытывает оргазм. Это всего лишь одно слово, но за последний год у злодея было десяток подружек, и с каждой был секс… и все они в Лос-Анджелесе! Спасти страну призваны главные специалисты по женщинам — Даниэль, Гоша и Виталик.



Страна: Россия
Студия: Enjoy Movies
Продолжительность: 01:21:45
Перевод: Не требуется [Лицензия]
Файл
Кодек: х264
Качество: DVDRip-AVC
Видео: 704x300 (2,35:1), 25,000 fps, х264 ~ 2106 kbps avg, 0.399 bit/pixel
Аудио: 48,0 kHz, Audio Coding 3, 6 ch, ~448 kbps avg
Общее
Уникальный идентификатор : 208765761884087972525148064681333175925 (0x9D0ED2BE627367F3B9BC800FB5393675)
Полное имя : D:ВидеоЧТО ТВОРЯТ МУЖЧИНЫ 2.DVDRip-AVC 1.46 by Vovan366(ExKinoRay).mkv
Формат : Matroska
Версия формата : Version 2
Размер файла : 1,46 Гбайт
Продолжительность : 1 ч. 21 м.
Общий поток : 2555 Кбит/сек
Дата кодирования : UTC 2016-09-19 18:09:20
Программа кодирования : mkvmerge v7.8.0 ('River Man') 32bit built on Apr 3 2015 12:11:22
Библиотека кодирования : libebml v1.3.1 + libmatroska v1.4.2
Видео
Идентификатор : 1
Формат : AVC
Формат/Информация : Advanced Video Codec
Профиль формата : High@L4.1
Параметр CABAC формата : Да
Параметр ReFrames формата : 10 кадров
Идентификатор кодека : V_MPEG4/ISO/AVC
Продолжительность : 1 ч. 21 м.
Битрейт : 2106 Кбит/сек
Ширина : 704 пикселя
Высота : 300 пикселей
Соотношение сторон : 2,35:1
Режим частоты кадров : Постоянный
Частота кадров : 25,000 кадров/сек
Цветовое пространство : YUV
Субдискретизация насыщенности : 4:2:0
Битовая глубина : 8 бит
Тип развёртки : Прогрессивная
Бит/(Пиксели*Кадры) : 0.399
Размер потока : 1,17 Гбайт (80%)
Библиотека кодирования : x264 core 146 r2538 121396c
Настройки программы : cabac=1 / ref=10 / deblock=1:-3:-3 / analyse=0x3:0x113 / me=umh / subme=10 / psy=1 / psy_rd=1.00:0.05 / mixed_ref=1 / me_range=32 / chroma_me=1 / trellis=2 / 8x8dct=1 / cqm=0 / deadzone=21,11 / fast_pskip=0 / chroma_qp_offset=-3 / threads=6 / lookahead_threads=1 / sliced_threads=0 / nr=0 / decimate=0 / interlaced=0 / bluray_compat=0 / constrained_intra=0 / bframes=10 / b_pyramid=2 / b_adapt=2 / b_bias=0 / direct=3 / weightb=1 / open_gop=0 / weightp=2 / keyint=250 / keyint_min=25 / scenecut=40 / intra_refresh=0 / rc_lookahead=40 / rc=2pass / mbtree=0 / bitrate=2106 / ratetol=1.0 / qcomp=0.60 / qpmin=0 / qpmax=69 / qpstep=4 / cplxblur=20.0 / qblur=0.5 / vbv_maxrate=14000 / vbv_bufsize=14000 / nal_hrd=none / filler=0 / ip_ratio=1.40 / pb_ratio=1.30 / aq=1:1.00
Default : Да
Forced : Нет
Аудио
Идентификатор : 2
Формат : AC-3
Формат/Информация : Audio Coding 3
Расширение режима : CM (complete main)
Параметр Endianness формата : Big
Идентификатор кодека : A_AC3
Продолжительность : 1 ч. 21 м.
Вид битрейта : Постоянный
Битрейт : 448 Кбит/сек
Каналы : 6 каналов
Расположение каналов : Front: L C R, Side: L R, LFE
Частота : 48,0 КГц
Битовая глубина : 16 бит
Метод сжатия : С потерями
Размер потока : 262 Мбайт (18%)
Default : Да
Forced : Нет



Релиз от:
Rip by: Vovan366


_________________



реклама партнёра


Вернуться к началу
 Профиль Отправить личное сообщение  
 
   Похожие торренты   Автор   Торрент   Размер 
В этой теме нет новых непрочитанных сообщений. Что творят мужчины! 2 (Сарик Андреасян) [2015, Комедия, DVDRip | Лицензия]

marya111

224 | 12

1.37 ГБ

В этой теме нет новых непрочитанных сообщений. Что творят мужчины! 2 (Сарик Андреасян) [Комедия, 2015] WEB-DL 1080p

Dracon

86 | 6

3.07 ГБ

В этой теме нет новых непрочитанных сообщений. Что творят мужчины! 2 (Сарик Андреасян) [Комедия, 2015] Web-DLRip

Dracon

277 | 12

1.37 ГБ

В этой теме нет новых непрочитанных сообщений. Что творят мужчины! 2 (Сарик Андреасян) [Комедия, 2015] WEB-DL 720p

Dracon

11 | 4

2.63 ГБ

В этой теме нет новых непрочитанных сообщений. С 8 марта, мужчины! (Мелодрама, комедия, 2014) DVDRip-AVC от ExKinoRay | Лицензия

marya111

39 | 4

1.46 ГБ

В этой теме нет новых непрочитанных сообщений. Зло, что творят люди / The Evil That Men Do [триллер, 2015] BDRip, Avo

marya111

64 | 6

1.38 ГБ

В этой теме нет новых непрочитанных сообщений. Зло, что творят люди / The Evil That Men Do [триллер, 2015] HDRip, Avo

salma3

209 | 137

1.18 ГБ


Начать новую тему Ответить на тему  [ 1 сообщение ] 




Для Мосгорсуда, Роскомнадзора и рекламодателей:: mosgorsud-torrent[собачка]yandex.ru