Торрент файл
скачать торрент магнет ссылка Добавлен: 21 июл 2016, 11:20
Размер: 1.37 ГБ
Сидеров: 11719
Личеров: 525
Автор

СообщениеДобавлено: 21 июл 2016, 11:20 

Не в сети
Супермодератор
Аватара пользователя
Дата регистрации:
15 фев 2012, 16:44
Возраст: 27
Спасибо: 5121 / 2089
Сообщения: 17296
Формат: WEB-DLRip, AVI, XviD, AC3
Режиссер: Мария Кравченко
Жанр: комедия
Продолжительность: 01:31:52
Год выпуска: 2015
В ролях: Юрий Колокольников, Катерина Шпица, Луиза-Габриэла Бровина, Полина Максимова, Валентин Пелка, Кристина Шаповалова, Никита Тарасов, Михаил Полицеймако
Описание:
У молодого, привлекательного и самовлюбленного Саши Титова в жизни, на первый взгляд, все сложилось как нельзя лучше: он успешный креативный директор рекламного агентства и полностью удовлетворен ни к чему не обязывающими отношениями с коллегой Оксаной Тарелкиной. Но однажды утром на пороге своего пентхауса Саша встречает милую десятилетнюю девчушку Алю, которая представляется его дочкой. Ворвавшись в жизнь Саши, смышленая и любознательная Аля серьезно намерена надолго в ней обосноваться. Но готов ли Саша принять все сюрпризы, приготовленные судьбой, и в корне изменить привычную холостяцкую жизнь?



Видео: 720x304 (2.35:1), 23.976 fps, XviD build 65 ~1737 kbps avg, 0.331 bit/pixel
Аудио: 48 kHz, АС3, 2/0 (L,R), ~384.00 kbps avg

Общее
Полное имя : C:\Users\Downloads\ДОКУМЕНТАЛКА\ZavTrak.U.Papo.2O16.O.WEB-DLRip.14OOMB.avi
Формат : AVI
Формат/Информация : Audio Video Interleave
Размер файла : 1,37 Гбайт
Продолжительность : 1 ч. 31 м.
Общий поток : 2130 Кбит/сек
Программа кодирования : VirtualDubMod 1.5.10.2 (build 2540/release)
Библиотека кодирования : VirtualDubMod build 2540/release

Видео
Идентификатор : 0
Формат : MPEG-4 Visual
Профиль формата : Advanced Simple@L5
Параметр BVOP формата : 2
Параметр QPel формата : Нет
Параметр GMC формата : Без точки перехода
Параметр матрицы формата : Default (MPEG)
Идентификатор кодека : XVID
Идентификатор кодека/Подсказка : XviD
Продолжительность : 1 ч. 31 м.
Битрейт : 1737 Кбит/сек
Ширина : 720 пикселей
Высота : 304 пикселя
Соотношение сторон : 2,35:1
Частота кадров : 24,000 кадра/сек
Цветовое пространство : YUV
Субдискретизация насыщенности : 4:2:0
Битовая глубина : 8 бит
Тип развёртки : Прогрессивная
Метод сжатия : С потерями
Бит/(Пиксели*Кадры) : 0.331
Размер потока : 1,11 Гбайт (82%)
Библиотека кодирования : XviD 1.2.1 (UTC 2008-12-04)

Аудио
Идентификатор : 1
Формат : AC-3
Формат/Информация : Audio Coding 3
Расширение режима : CM (complete main)
Параметр Endianness формата : Big
Идентификатор кодека : 2000
Продолжительность : 1 ч. 31 м.
Вид битрейта : Постоянный
Битрейт : 384 Кбит/сек
Каналы : 2 канала
Расположение каналов : Front: L R
Частота : 48,0 КГц
Битовая глубина : 16 бит
Метод сжатия : С потерями
Размер потока : 252 Мбайт (18%)
Выравнивание : Разделение по промежуткам
Продолжительность промежутка : 42 мс. (1,00 видеокадр)
Время предзагрузки промежутка : 500 мс.




_________________



реклама партнёра


Вернуться к началу
 Профиль Отправить личное сообщение  
 
   Похожие торренты   Автор   Торрент   Размер 
В этой теме нет новых непрочитанных сообщений. My Dads Hot Girlfriend 29 / Горячая Подруга Моего Папы 29 (Naughty America) [2015 г., WEB-DL]

max77777

17 | 2

1.1 ГБ

В этой теме нет новых непрочитанных сообщений. My Dad's Hot Girlfriend 25 / Горячая Подруга Моего Папы 25 (Naughty America) (Anissa Kate, Ariana Marie, Brooklyn Chase, Jessie Volt, Keisha Grey...) [2015 г., All Sex, Oral, Gonzo, BigTits, Porn Stars, Hardcore, WEB-DL 404p] Split Scenes

friizze

4 | 3

1.98 ГБ

В этой теме нет новых непрочитанных сообщений. Секс на завтрак / Sex and Breakfast [комедия, 2007] DVDRip, Dvo

salma3

2 | 2

1.36 ГБ

В этой теме нет новых непрочитанных сообщений. Собачий завтрак / A Dog's Breakfast [Комедия, 2007] DVD9, Dvo+Sub

salma3

13 | 3

6.57 ГБ

В этой теме нет новых непрочитанных сообщений. Секс на завтрак / Sex and Breakfast [драма, мелодрама, комедия, 2007] HDTV 720p, Mvo

salma3

129 | 14

4.73 ГБ

В этой теме нет новых непрочитанных сообщений. Мачо Мэн / Macho Man [комедия, 2015] WEB-DLRip, Mvo

salma3

688 | 55

1.37 ГБ

В этой теме нет новых непрочитанных сообщений. Воры / Ladrones [Комедия, 2015] WEB-DLRip, Dvo

salma3

3 | 1

743.99 МБ


Начать новую тему Ответить на тему  [ 1 сообщение ] 




Для Мосгорсуда, Роскомнадзора и рекламодателей:: mosgorsud-torrent[собачка]yandex.ru