Торрент файл
скачать торрент магнет ссылка Добавлен: 10 дек 2015, 21:34
Размер: 2.28 ГБ
Сидеров: 1393
Личеров: 144
Автор

СообщениеДобавлено: 10 дек 2015, 21:34 

Не в сети
Зам. Админа
Аватара пользователя
Дата регистрации:
02 дек 2010, 12:39
Спасибо: 12458 / 214
Сообщения: 27968
Информация о фильме
Оригинальное название: Неуловимые: Последний герой
Год выхода: 2015
Жанр: мелодрама, криминал
Режиссер: Артем Аксененко
В ролях: Александр Петров, Александра Бортич, Иван Шахназаров, Анвар Халилулаев, Илья Маланин, Владимир Яворский, Дмитрий Готсдинер, Алёна Ивченко, Максим Браматкин
О фильме: Четверка главных героев во главе с Кирой продолжает свою борьбу с несправедливостью. Новая миссия: выследить яхту с крупной партией наркотиков и сдать всех ментам! И почти получилось. Вот только таинственный незнакомец неожиданно взрывает судно наркоторговцев на глазах у полиции и «неуловимых». Кто он — радикальный борец со злом или решил зачем-то подставить ребят? Пока друзья пытаются разобраться, тот сам находит Киру. Теперь она одна знает его мотивы… а еще понимает, что влюбилась по уши.

Выпущено: Россия
Продолжительность: 01:15:59
Озвучание: Оригинальное [iTunes]
Файл
Формат: MKV
Качество: WEB-DL 720p
Видео: MPEG-4 AVC, 3827 kb/s, 1280x530
Аудио: AC3, 384 Kb/s (6 ch)
Format : Matroska
Format version : Version 4 / Version 2
File size : 2.28 GiB
Duration : 1h 15mn
Overall bit rate : 4 297 Kbps
Encoded date : UTC 2015-12-10 13:26:52
Writing application : mkvmerge v8.3.0 ('Over the Horizon') 64bit
Writing library : libebml v1.3.1 + libmatroska v1.4.2
DURATION : 01:15:59.200000000
NUMBER_OF_FRAMES : 142475
NUMBER_OF_BYTES : 218841600
_STATISTICS_WRITING_APP : mkvmerge v8.3.0 ('Over the Horizon') 64bit
_STATISTICS_WRITING_DATE_UTC : 2015-12-10 13:26:52
_STATISTICS_TAGS : BPS DURATION NUMBER_OF_FRAMES NUMBER_OF_BYTES

Video
ID : 1
Format : AVC
Format/Info : Advanced Video Codec
Format profile : Main@L3.1
Format settings, CABAC : No
Format settings, ReFrames : 2 frames
Codec ID : V_MPEG4/ISO/AVC
Duration : 1h 15mn
Bit rate : 3 827 Kbps
Width : 1 280 pixels
Height : 530 pixels
Display aspect ratio : 2.40:1
Frame rate mode : Constant
Frame rate : 24.000 fps
Color space : YUV
Chroma subsampling : 4:2:0
Bit depth : 8 bits
Scan type : Progressive
Bits/(Pixel*Frame) : 0.235
Stream size : 2.03 GiB (89%)
Language : English
Default : Yes
Forced : No
Color range : Limited
Color primaries : BT.709
Transfer characteristics : BT.709
Matrix coefficients : BT.709

Audio
ID : 2
Format : AC-3
Format/Info : Audio Coding 3
Mode extension : CM (complete main)
Format settings, Endianness : Big
Codec ID : A_AC3
Duration : 1h 15mn
Bit rate mode : Constant
Bit rate : 384 Kbps
Channel(s) : 6 channels
Channel positions : Front: L C R, Side: L R, LFE
Sampling rate : 48.0 KHz
Bit depth : 16 bits
Compression mode : Lossy
Stream size : 209 MiB (9%)
Language : Russian
Default : Yes
Forced : No

Menu
00:00:00.000 : en:1
00:10:08.000 : en:2
00:20:32.000 : en:3
00:31:26.000 : en:4
00:40:41.000 : en:5
00:51:41.000 : en:6
01:00:56.000 : en:7
01:12:54.000 : en:8




реклама партнёра


Вернуться к началу
 Профиль  
 
   Похожие торренты   Автор   Торрент   Размер 
В этой теме нет новых непрочитанных сообщений. Неуловимые: Последний герой (Артем Аксененко) [криминал, драма, 2015] WEB-DLRip

Dracon

323 | 5

1.37 ГБ

В этой теме нет новых непрочитанных сообщений. Неуловимые: Последний герой (Артем Аксененко) [криминал, драма, 2015] WEB-DL 1080p

Dracon

18 | 1

2.55 ГБ

В этой теме нет новых непрочитанных сообщений. Неуловимые (Артем Аксененко) [приключения, комедия, криминал, 2015] WEB-DLRip

Dracon

54 | 2

1.37 ГБ

В этой теме нет новых непрочитанных сообщений. Неуловимые (Артем Аксененко) [приключения, комедия, криминал, 2015] WEB-DL 1080p

Dracon

684 | 19

2.64 ГБ

В этой теме нет новых непрочитанных сообщений. Чемпионы: Быстрее. Выше. Сильнее (Артем Аксененко) [2016, спорт, драма, HQRip] Лицензия

marya111

5 | 2

1.46 ГБ

В этой теме нет новых непрочитанных сообщений. Последний вагон. Весна (Антон Калинкин) [триллер, 2015] WEB-DL 720p [iTunes]

Dracon

1768 | 174

3.25 ГБ

В этой теме нет новых непрочитанных сообщений. Последний охотник на ведьм / The Last Witch Hunter [фэнтези, боевик, приключения, 2015] BDRip 720p, Dub [iTunes]

Dracon

187 | 15

5.75 ГБ


Начать новую тему Ответить на тему  [ 1 сообщение ] 




Для Мосгорсуда, Роскомнадзора и рекламодателей:: mosgorsud-torrent[собачка]yandex.ru