Торрент файл
скачать торрент магнет ссылка Добавлен: 09 дек 2015, 16:31
Размер: 2.27 ГБ
Сидеров: 1129
Личеров: 55
Автор

СообщениеДобавлено: 09 дек 2015, 16:31 

Не в сети
Зам. Админа
Аватара пользователя
Дата регистрации:
02 дек 2010, 12:39
Спасибо: 12461 / 214
Сообщения: 27968


Информация о фильме
Название: Решала
Год выхода: 2012
Жанр: Драма, криминал
Режиссер: Роман Асхаев
В ролях: Александр Фролов, Константин Озеров, Алина Намсараева, Мосэ Куртанидзэ, Руслан Балакшиев, Лариса Иринцеева

О фильме:
Фильм о двух братьях. Старший — юрист, успешный человек, к нему обращаются за решением различных вопросов. Но ему предстоит решить самую главную задачу своей жизни-вытащить младшего брата из криминальной передряги.



Страна: Россия
Продолжительность: 01:19:10
Перевод: Не требуется

Файл
Формат: MKV
Кодек: MPEG-4 AVC
Качество: WEB-DL (720p)
Видео: 1280x544 ~ 3852 Кбит/с 24fps
Аудио RU: AC3, 2 ch, 256 Кбит/с
Субтитры: Нет




Как не секрет для нас всех, есть какой дух на мотивы Сергея Бодрова мл. взять фильмы «Брат» и «Сестры». По моей точки зрения кажется что есть родственные души, между этим «Трио».
Решала — Качественное Бурятское кино, на одном из форумов Бурятии выложили ссылку на скачивание данного проекта — очень обрадовался что фильм наконец то вышел в сети интернета. От увиденного я пришел в шокирующее состояние, ожидал от фильма мыльную оперу и все в этом духе. Мат в начале фильма насторожил что действие картины будет разворачиваться на пацанских обстоятельствах, проблемах.
«Что не сделали родители — вынужденно доделывать обществу». Разве не так? Очень интригующая цитата, несет в себе жизненный помысл.
В данный момент самая лучшая картина Бурятского Кинематографа, актерская игра на высоте — если судить что они не профессионалы, музыкальное сопровождение, непредсказуемый конец — Брат за брата.
Общее
Уникальный идентификатор : 208920213939058703924689583030067753917 (0x9D2C91D164142B6897B4B0FFF6A373BD)
Полное имя : NASMediaРешала.2012.WEB.DL.720p.mkv
Формат : Matroska
Версия формата : Version 2
Размер файла : 2,27 Гбайт
Продолжительность : 1 ч. 19 м.
Общий поток : 4109 Кбит/сек
Дата кодирования : UTC 2014-03-05 06:03:09
Программа кодирования : mkvmerge v6.1.0 ('Old Devil') built on Mar 4 2013 09:10:42
Библиотека кодирования : libebml v1.3.0 + libmatroska v1.4.0

Видео
Идентификатор : 1
Формат : AVC
Формат/Информация : Advanced Video Codec
Профиль формата : High@L3.1
Параметр CABAC формата : Да
Параметр ReFrames формата : 4 кадра
Идентификатор кодека : V_MPEG4/ISO/AVC
Продолжительность : 1 ч. 19 м.
Битрейт : 3850 Кбит/сек
Ширина : 1280 пикселей
Высота : 544 пикселя
Соотношение сторон : 2,35:1
Режим частоты кадров : Постоянный
Частота кадров : 24,000 кадра/сек
Цветовое пространство : YUV
Субдискретизация насыщенности : 4:2:0
Битовая глубина : 8 бит
Тип развёртки : Прогрессивная
Бит/(Пиксели*Кадры) : 0.230
Размер потока : 2,09 Гбайт (92%)
Библиотека кодирования : x264 core 130 r2273 b3065e6
Настройки программы : cabac=1 / ref=3 / deblock=1:0:0 / analyse=0x3:0x113 / me=hex / subme=7 / psy=1 / psy_rd=1.00:0.00 / mixed_ref=1 / me_range=16 / chroma_me=1 / trellis=1 / 8x8dct=1 / cqm=0 / deadzone=21,11 / fast_pskip=1 / chroma_qp_offset=-2 / threads=3 / lookahead_threads=1 / sliced_threads=0 / nr=0 / decimate=1 / interlaced=0 / bluray_compat=0 / constrained_intra=0 / bframes=3 / b_pyramid=2 / b_adapt=1 / b_bias=0 / direct=3 / weightb=1 / open_gop=0 / weightp=2 / keyint=250 / keyint_min=23 / scenecut=40 / intra_refresh=0 / rc_lookahead=40 / rc=2pass / mbtree=1 / bitrate=3850 / ratetol=1.0 / qcomp=0.60 / qpmin=0 / qpmax=69 / qpstep=4 / cplxblur=20.0 / qblur=0.5 / ip_ratio=1.40 / aq=1:1.00
Default : Да
Forced : Нет

Аудио
Идентификатор : 2
Формат : AC-3
Формат/Информация : Audio Coding 3
Расширение режима : CM (complete main)
Параметр Endianness формата : Big
Идентификатор кодека : A_AC3
Продолжительность : 1 ч. 19 м.
Вид битрейта : Постоянный
Битрейт : 256 Кбит/сек
Каналы : 2 канала
Расположение каналов : Front: L R
Частота : 48,0 КГц
Частота кадров : 31,250 кадров/сек (1536 spf)
Метод сжатия : С потерями
Размер потока : 145 Мбайт (6%)
Default : Да
Forced : Нет




реклама партнёра


Вернуться к началу
 Профиль  
 
   Похожие торренты   Автор   Торрент   Размер 
В этой теме нет новых непрочитанных сообщений. Решала 2 (Роман Асхаев) [драма, криминал, 2015] WEBRip

Dracon

21412 | 3838

1.37 ГБ

В этой теме нет новых непрочитанных сообщений. Поездка на возу / Hayride [ужасы, драма, криминал, 2012] WEB-DL 720p, dvo

Dracon

34 | 8

2.07 ГБ

В этой теме нет новых непрочитанных сообщений. Железнодорожный роман / Roman de gare [триллер, драма, 2007] BDRip 720p, Mvo

salma3

165 | 23

3.83 ГБ

В этой теме нет новых непрочитанных сообщений. Контрабанда / Contraband [боевик, триллер, драма, криминал, 2012] BDRip 720p, Dub+Avo+Sub

salma3

108 | 33

7.63 ГБ

В этой теме нет новых непрочитанных сообщений. Эмпайр Стэйт / Empire State [криминал, драма, 2012] BDRip 720p, Mvo [лицензия]

Dracon

1 | 2

4.67 ГБ

В этой теме нет новых непрочитанных сообщений. Во все тяжкие / Breaking Bad [s05] [Триллер, драма, криминал, 2012-2013] BDRip 720p, 2Mvo+Sub

salma3

107 | 34

42.11 ГБ

В этой теме нет новых непрочитанных сообщений. Версальский роман / A Little Chaos (Алан Рикман) [драма, мелодрама, комедия, 2014] WEB-DL 720p, Mvo [iTunes]

Dracon

5 | 0

3.46 ГБ


Начать новую тему Ответить на тему  [ 1 сообщение ] 




Для Мосгорсуда, Роскомнадзора и рекламодателей:: mosgorsud-torrent[собачка]yandex.ru