Торрент файл
скачать торрент магнет ссылка Добавлен: 22 ноя 2015, 12:12
Размер: 2.65 ГБ
Сидеров: 2040
Личеров: 231
Автор

СообщениеДобавлено: 22 ноя 2015, 12:12 

Не в сети
Зам. Админа
Аватара пользователя
Дата регистрации:
02 дек 2010, 12:39
Спасибо: 12458 / 214
Сообщения: 27968
Год выхода: 2015
Жанр: комедия
Режиссер: Кирилл Кузин
В ролях: Харальд Розенстрём, Александр Пальчиков, Екатерина Кузнецова, Сабина Ахмедова, Алексей Демидов, Марина Федункив, Анатолий Белый, Kristelle, Борис Эстрин, Артем Семакин
О фильме: Что завтра на рассвете с каждым из нас случится, не знает никто. И когда ТРИ наших героя проснулись на необитаемом острове, в компании ДВУХ красивых… но не очень дружелюбных девушек… да еще без воды и еды… Вот тут они и поняли, что жизнь действительно полна сюрпризов!

Выпущено: Россия / РИМ
Продолжительность: 01:26:14
Озвучивание: Оригинальное [iTunes]

Формат: MKV
Качество: WEB-DL 720p
Видео: MPEG-4 AVC, 3921 kb/s, 1280@960x536
Аудио: AC3, 384 kb/s (6 ch)
Format : Matroska
Format version : Version 4 / Version 2
File size : 2.65 GiB
Duration : 1h 26mn
Overall bit rate : 4 392 Kbps
Encoded date : UTC 2015-11-21 19:25:12
Writing application : mkvmerge v8.3.0 ('Over the Horizon') 64bit
Writing library : libebml v1.3.1 + libmatroska v1.4.2

Video
ID : 1
Format : AVC
Format/Info : Advanced Video Codec
Format profile : Main@L3.1
Format settings, CABAC : No
Format settings, ReFrames : 2 frames
Codec ID : V_MPEG4/ISO/AVC
Duration : 1h 26mn
Bit rate : 3 921 Kbps
Width : 960 pixels
Height : 536 pixels
Display aspect ratio : 2.40:1
Frame rate mode : Constant
Frame rate : 25.000 fps
Color space : YUV
Chroma subsampling : 4:2:0
Bit depth : 8 bits
Scan type : Progressive
Bits/(Pixel*Frame) : 0.305
Stream size : 2.36 GiB (89%)
Language : English
Default : Yes
Forced : No
Color range : Limited
Color primaries : BT.709
Transfer characteristics : BT.709
Matrix coefficients : BT.709

Audio
ID : 2
Format : AC-3
Format/Info : Audio Coding 3
Mode extension : CM (complete main)
Format settings, Endianness : Big
Codec ID : A_AC3
Duration : 1h 26mn
Bit rate mode : Constant
Bit rate : 384 Kbps
Channel(s) : 6 channels
Channel positions : Front: L C R, Side: L R, LFE
Sampling rate : 48.0 KHz
Bit depth : 16 bits
Compression mode : Lossy
Stream size : 237 MiB (9%)
Language : Russian
Default : Yes
Forced : No

Menu
00:00:00.000 : en:Глава 1
00:05:01.000 : en:Глава 2
00:10:30.000 : en:Глава 3
00:15:50.000 : en:Глава 4
00:21:17.000 : en:Глава 5
00:26:34.000 : en:Глава 6
00:32:25.000 : en:Глава 7
00:38:19.000 : en:Глава 8
00:43:34.000 : en:Глава 9
00:49:02.000 : en:Глава 10
00:54:04.000 : en:Глава 11
01:00:06.000 : en:Глава 12
01:05:26.000 : en:Глава 13
01:11:52.000 : en:Глава 14
01:17:40.000 : en:Глава 15
01:23:34.000 : en:Глава 16




реклама партнёра


Вернуться к началу
 Профиль  
 
   Похожие торренты   Автор   Торрент   Размер 
В этой теме нет новых непрочитанных сообщений. Война полов (Кирилл Кузин) [комедия, 2015] WEB-DL 1080p [iTunes]

Dracon

3527 | 436

2.97 ГБ

В этой теме нет новых непрочитанных сообщений. Война полов (Кирилл Кузин) [комедия, 2015] WEB-DLRip [iTunes]

Dracon

19977 | 2162

1.37 ГБ

В этой теме нет новых непрочитанных сообщений. Залётчики (Кирилл Кузин) [2014, комедия, WEB-DL 1080p | Лицензия]

Nickolas3435

149 | 12

3.08 ГБ

В этой теме нет новых непрочитанных сообщений. Единичка (Кирилл Белевич) [военный, драма, 2015] WEB-DL 720p [iTunes]

Dracon

1 | 0

3.22 ГБ

В этой теме нет новых непрочитанных сообщений. Новые русские (Камила Сафина, Григорий Добрыгин, Оксана Михеева, Кирилл Плетнёв, Жора Крыжовников) [комедия, триллер, фантастика, драма, 2015] WEB-DL 1080p [iTunes]

Dracon

2288 | 172

3.1 ГБ

В этой теме нет новых непрочитанных сообщений. Новые русские (Камила Сафина, Григорий Добрыгин, Оксана Михеева, Кирилл Плетнёв, Жора Крыжовников) [комедия, триллер, фантастика, драма, 2015] WEB-DLRip [iTunes]

Dracon

6788 | 469

1.37 ГБ

В этой теме нет новых непрочитанных сообщений. Единичка (Кирилл Белевич) [военный, драма, 2015] WEB-DL 1080p [iTunes]

Dracon

1674 | 41

3.56 ГБ


Начать новую тему Ответить на тему  [ 1 сообщение ] 




Для Мосгорсуда, Роскомнадзора и рекламодателей:: mosgorsud-torrent[собачка]yandex.ru