Торрент файл
скачать торрент магнет ссылка Добавлен: 14 окт 2015, 15:55
Размер: 1.89 ГБ
Сидеров: 3385
Личеров: 93
Автор

СообщениеДобавлено: 14 окт 2015, 15:55 

Не в сети
Зам. Админа
Аватара пользователя
Дата регистрации:
02 дек 2010, 12:39
Спасибо: 12461 / 214
Сообщения: 27968
Информация о фильме
Название: Секрет Зоар
Оригинальное название: The Zohar Secret
Год выхода: 2015
Жанр: фантастика, драма, комедия
Режиссер: Владэк Занковски
В ролях: Александр Демидов, Ирина Баринова, Генри Давид, Рой Мирон, Олег Фендюра, Светлана Демидов, Сергей Попов, Игал Резник, Юрий Ядыкин, Владимир Золин

О фильме:
В руки Макса попал древний свиток, в котором была описана вся история человечества от начала и до самого конца. Попытавшись воспользоваться этой информацией в собственных интересах, Макс запускает механизм, который начинает влиять на его жизнь.


Страна: Израиль, США, Украина, Россия, Испания
Продолжительность: 02:03:49
Язык: руский

Файл
Кодек: AVC
Качество: WEBRip 720p
Видео: ~2 016 Кбит/с, 1280x536, 24 кадра/с
Звук: MP3, 2 ch, 128 Kbps
Субтитры: Вшитые - неотключаемые - на иностранную речь



General
Unique ID : 179769594414024234501078003814611103000 (0x873E5D4FB0C9E892B8C8D80B39F92D18)
Complete name : D:Секрет Зоар The Zohar Secret.mkv
Format : Matroska
Format version : Version 4 / Version 2
File size : 1.89 GiB
Duration : 2h 3mn
Overall bit rate : 2 188 Kbps
Encoded date : UTC 2015-10-13 13:31:48
Writing application : mkvmerge v8.3.0 ('Over the Horizon') 64bit
Writing library : libebml v1.3.1 + libmatroska v1.4.2
DURATION : 02:03:49.172000000
NUMBER_OF_FRAMES : 284398
NUMBER_OF_BYTES : 118866755
_STATISTICS_WRITING_APP : mkvmerge v8.3.0 ('Over the Horizon') 64bit
_STATISTICS_WRITING_DATE_UT : 2015-10-13 13:31:48
_STATISTICS_TAGS : BPS DURATION NUMBER_OF_FRAMES NUMBER_OF_BYTES

Video
ID : 1
Format : AVC
Format/Info : Advanced Video Codec
Format profile : Baseline@L3.1
Format settings, CABAC : No
Format settings, ReFrames : 1 frame
Format settings, GOP : M=1, N=12
Codec ID : V_MPEG4/ISO/AVC
Duration : 2h 3mn
Bit rate : 2 016 Kbps
Width : 1 280 pixels
Height : 536 pixels
Display aspect ratio : 2.40:1
Frame rate mode : Constant
Frame rate : 24.000 fps
Color space : YUV
Chroma subsampling : 4:2:0
Bit depth : 8 bits
Scan type : Progressive
Bits/(Pixel*Frame) : 0.122
Stream size : 1.74 GiB (92%)
Language : English
Default : Yes
Forced : No

Audio
ID : 2
Format : MPEG Audio
Format version : Version 1
Format profile : Layer 3
Mode : Joint stereo
Codec ID : A_MPEG/L3
Codec ID/Hint : MP3
Duration : 2h 3mn
Bit rate mode : Constant
Bit rate : 128 Kbps
Channel(s) : 2 channels
Sampling rate : 44.1 KHz
Compression mode : Lossy
Stream size : 113 MiB (6%)
Language : Russian
Default : Yes
Forced : No




реклама партнёра


Вернуться к началу
 Профиль  
 
   Похожие торренты   Автор   Торрент   Размер 
В этой теме нет новых непрочитанных сообщений. Секрет Зоар / The Zohar Secret (Владэк Занковски) [2015, фантастика, драма, комедия, WEBRip]

Dracon

1389 | 59

1.04 ГБ

В этой теме нет новых непрочитанных сообщений. Ночь в музее: Секрет гробницы / Night at the Museum: Secret of the Tomb (Шон Леви) [Фэнтези, комедия, приключения, семейный, 2015] BDRip 720p, Dub+Sub [Лицензия]

Dracon

208 | 17

3.66 ГБ

В этой теме нет новых непрочитанных сообщений. Ночь в музее: Секрет гробницы / Night at the Museum: Secret of the Tomb (Шон Леви) [Фэнтези, комедия, приключения, семейный, 2015] BDRip 720p, dub [Звук с TS]

Dracon

47 | 4

4.51 ГБ

В этой теме нет новых непрочитанных сообщений. Ночь в музее: Секрет гробницы / Night at the Museum: Secret of the Tomb (Шон Леви) [Фэнтези, комедия, приключения, семейный, 2015] BDRip 720p, Dub [iTunes]

Dracon

304 | 9

6.27 ГБ

В этой теме нет новых непрочитанных сообщений. Ночь в музее: Секрет гробницы / Night at the Museum: Secret of the Tomb (Шон Леви) [Фэнтези, комедия, приключения, семейный, 2015] BDRip 720p, dub [Чистый звук]

Dracon

27 | 2

4.6 ГБ

В этой теме нет новых непрочитанных сообщений. Секрет моего успеха / The Secret of My Success [комедия, 1987] BDRip 720p, Dub+Mvo+Avo+Sub

salma3

46 | 9

5.9 ГБ

В этой теме нет новых непрочитанных сообщений. Ночь в музее: Секрет гробницы / Night at the Museum: Secret of the Tomb (Шон Леви) [Фэнтези, комедия, приключения, семейный, 2015] HDRip, Dub [iTunes]

Dracon

21 | 2

1.37 ГБ


Начать новую тему Ответить на тему  [ 1 сообщение ] 




Для Мосгорсуда, Роскомнадзора и рекламодателей:: mosgorsud-torrent[собачка]yandex.ru