Торрент файл
скачать торрент магнет ссылка Добавлен: 07 авг 2015, 11:40
Размер: 1.45 ГБ
Сидеров: 1136
Личеров: 22
Автор

СообщениеДобавлено: 07 авг 2015, 11:40 

Не в сети
Зам. Админа
Аватара пользователя
Дата регистрации:
02 дек 2010, 12:39
Спасибо: 12461 / 214
Сообщения: 27968
Год выпуска: 2015
Жанр: Комедия, мелодрама
Выпущено: Россия, ЦПШ
Режиссер: Арман Геворгян
В ролях: Дмитрий Ендальцев, Светлана Ходченкова, Анна Чиповская, Тимур Батрутдинов, Борис Смолкин, Виталий Хаев, Гоша Куценко, Дмитрий Нагиев, Дмитрий Хрусталёв, Михаил Самота

О фильме: В руки Макса попадает «счастливый» гороскоп, которому он должен следовать 30 дней, выполняя все его безумные предписания, чтобы добиться расположения недоступной прежде красавицы и удачи во всех делах. Но в один прекрасный день гороскоп Макса подменяют...

Качество: WEB-DLRip (AVC)
Видео: MPEG-4AVC, 1770 Кбит/с, 1024x432
Аудио: АC3, 6 ch, 384 Кбит/с
Размер: 1.45 ГБ
Продолжительность: 01:36:29
Язык: Русский

Семпл
x264 [info]: frame I:1081 Avg QP:16.00 size: 63068
x264 [info]: frame P:36476 Avg QP:19.31 size: 19109
x264 [info]: frame B:101382 Avg QP:21.20 size: 5072
Общее
Уникальный идентификатор : 171183684413713222131797202985252775115 (0x80C8C743EE437AAFA671113A95CB64CB)
Полное имя : C:G0P0CK0p.Ha.uda41u.2015.O.WEB-DLRip.AVC.bog3417.mkv
Формат : Matroska
Версия формата : Version 2
Размер файла : 1,45 Гбайт
Продолжительность : 1 ч. 36 м.
Общий поток : 2154 Кбит/сек
Название фильма : by_bog3417
Дата кодирования : UTC 2015-08-06 21:35:40
Программа кодирования : mkvmerge v7.9.0 ('Birds') 64bit
Библиотека кодирования : libebml v1.3.1 + libmatroska v1.4.2
Видео
Идентификатор : 1
Формат : AVC
Формат/Информация : Advanced Video Codec
Профиль формата : High@L4.1
Параметр CABAC формата : Да
Параметр ReFrames формата : 9 кадров
Идентификатор кодека : V_MPEG4/ISO/AVC
Продолжительность : 1 ч. 36 м.
Битрейт : 1770 Кбит/сек
Ширина : 1024 пикселя
Высота : 432 пикселя
Соотношение сторон : 2,40:1
Режим частоты кадров : Постоянный
Частота кадров : 24,000 кадра/сек
Цветовое пространство : YUV
Субдискретизация насыщенности : 4:2:0
Битовая глубина : 8 бит
Тип развёртки : Прогрессивная
Бит/(Пиксели*Кадры) : 0.167
Размер потока : 1,16 Гбайт (80%)
Заголовок : by_bog3417
Библиотека кодирования : x264 core 146 r2538 121396c
Настройки программы : cabac=1 / ref=9 / deblock=1:-3:-3 / analyse=0x3:0x33 / me=umh / subme=11 / psy=1 / psy_rd=1.00:0.00 / mixed_ref=1 / me_range=32 / chroma_me=1 / trellis=2 / 8x8dct=1 / cqm=0 / deadzone=21,11 / fast_pskip=0 / chroma_qp_offset=-2 / threads=12 / lookahead_threads=2 / sliced_threads=0 / nr=0 / decimate=0 / interlaced=0 / bluray_compat=0 / constrained_intra=0 / bframes=9 / b_pyramid=2 / b_adapt=2 / b_bias=0 / direct=3 / weightb=1 / open_gop=0 / weightp=2 / keyint=250 / keyint_min=25 / scenecut=40 / intra_refresh=0 / rc=2pass / mbtree=0 / bitrate=1770 / ratetol=1.0 / qcomp=0.60 / qpmin=0 / qpmax=69 / qpstep=4 / cplxblur=20.0 / qblur=0.5 / ip_ratio=1.40 / pb_ratio=1.30 / aq=3:0.90
Язык : English
Default : Да
Forced : Нет
Аудио
Идентификатор : 2
Формат : AC-3
Формат/Информация : Audio Coding 3
Расширение режима : CM (complete main)
Параметр Endianness формата : Big
Идентификатор кодека : A_AC3
Продолжительность : 1 ч. 36 м.
Вид битрейта : Постоянный
Битрейт : 384 Кбит/сек
Каналы : 6 каналов
Расположение каналов : Front: L C R, Side: L R, LFE
Частота : 48,0 КГц
Метод сжатия : С потерями
Размер потока : 265 Мбайт (18%)
Язык : Russian
Default : Да
Forced : Нет
Меню
00:00:00.000 : en:Глава 1
00:05:04.000 : en:Глава 2
00:12:33.000 : en:Глава 3
00:16:33.000 : en:Глава 4
00:22:11.000 : en:Глава 5
00:29:32.000 : en:Глава 6
00:34:00.000 : en:Глава 7
00:39:41.000 : en:Глава 8
00:46:14.000 : en:Глава 9
00:53:13.000 : en:Глава 10
00:57:49.000 : en:Глава 11
01:03:57.000 : en:Глава 12
01:12:07.000 : en:Глава 13
01:17:40.000 : en:Глава 14
01:23:54.000 : en:Глава 15
01:28:08.000 : en:Глава 16









реклама партнёра


Вернуться к началу
 Профиль  
 
   Похожие торренты   Автор   Торрент   Размер 
В этой теме нет новых непрочитанных сообщений. Гороскоп на удачу (Арман Геворгян) [комедия, мелодрама, 2015] WEB-DLRip [iTunes]

Dracon

10634 | 218

1.37 ГБ

В этой теме нет новых непрочитанных сообщений. Гороскоп на удачу (Арман Геворгян) [комедия, мелодрама, 2015] WEB-DL 1080p [iTunes]

Dracon

85 | 1

3.3 ГБ

В этой теме нет новых непрочитанных сообщений. Гороскоп на удачу (Арман Геворгян) [комедия, мелодрама, 2015] WEB-DL 720p [iTunes]

Dracon

3003 | 63

3 ГБ

В этой теме нет новых непрочитанных сообщений. SOS, Дед Мороз или Все сбудется! (Арман Геворгян) [2015, комедия, семейный] [iTunes]

Dracon

11015 | 1201

1.36 ГБ

В этой теме нет новых непрочитанных сообщений. SOS, Дед Мороз или Все сбудется! (Арман Геворгян) [2015, комедия, семейный] WEB-DL 720p [iTunes]

Dracon

1278 | 33

2.69 ГБ

В этой теме нет новых непрочитанных сообщений. SOS, Дед Мороз или Все сбудется! (Арман Геворгян) [2015, комедия, семейный] WEB-DL 1080p [iTunes]

Dracon

1329 | 70

3.27 ГБ

В этой теме нет новых непрочитанных сообщений. Снайпер: Герой сопротивления (Арман Геворгян) [Военный, Драма, Приключения, 2015] WEB-DLRip

Dracon

9 | 0

1.37 ГБ


Начать новую тему Ответить на тему  [ 1 сообщение ] 




Для Мосгорсуда, Роскомнадзора и рекламодателей:: mosgorsud-torrent[собачка]yandex.ru