Торрент файл
скачать торрент магнет ссылка Добавлен: 08 июл 2015, 20:44
Размер: 1.37 ГБ
Сидеров: 0
Личеров: 0
Автор

СообщениеДобавлено: 08 июл 2015, 20:44 

Не в сети
Зам. Админа
Аватара пользователя
Дата регистрации:
02 дек 2010, 12:39
Спасибо: 12460 / 214
Сообщения: 27968
Год выхода: 2014
Жанр: драма
Режиссер: Ефим Грибов
В ролях: Семён Стругачев, Екатерина Голубева, Юлия Свежакова, Наташа Грегсон Вагнер, Валентина Де Анджелис, Лотер Блюто

О фильме:
Русский художник-эмигрант Алик, женолюб и любимец женщин, мечтает стать новой звездой богемного мира Нью-Йорка. Он полон энергии и жажды жизни, несмотря на то, что тяжелая болезнь, поразившая его, уже дает о себе знать. В удушливой жаре и навязчивых звуках мегаполиса Алик продолжает кружиться в лихорадочном водовороте страсти, пытаясь стать ближе к каждой из своих женщин.

Качество: WEB-DLRip
Видео: 720x400 , 25 fps, XviD build 73 ~1775 kbps
Аудио: AC3, 2 ch, 128 Кбит/с
Субтитры:На английскую речь вшитые русские
Продолжительность: 01:42:20
Перевод: Не требуется
G:Вкус Америки (2014) WEB-DLRip.avi
   General
      Complete name : G:Вкус Америки (2014) WEB-DLRip.avi
      Format : AVI
      Format/Info : Audio Video Interleave
      File size : 1.37 GiB
      Duration : 1h 42mn
      Overall bit rate : 1 913 Kbps
      Writing application : VirtualDubMod 1.5.10.3 | http://www.virtualdub-fr.org || (build 2550/release)
      Writing library : VirtualDubMod build 2550/release
   Video #0
      ID : 0
      Format : MPEG-4 Visual
      Format profile : Advanced Simple@L5
      Format settings, BVOP : 2
      Format settings, QPel : No
      Format settings, GMC : No warppoints
      Format settings, Matrix : Default (MPEG)
      Codec ID : XVID
      Codec ID/Hint : XviD
      Duration : 1h 42mn
      Bit rate : 1 775 Kbps
      Width : 720 pixels
      Height : 400 pixels
      Display aspect ratio : 16:9
      Frame rate : 25.000 fps
      Color space : YUV
      Chroma subsampling : 4:2:0
      Bit depth : 8 bits
      Scan type : Progressive
      Compression mode : Lossy
      Bits/(Pixel*Frame) : 0.247
      Stream size : 1.27 GiB (93%)
      Writing library : XviD 1.2.1 (UTC 2008-12-04)
   Audio #1
      ID : 1
      Format : AC-3
      Format/Info : Audio Coding 3
      Mode extension : CM (complete main)
      Format settings, Endianness : Big
      Codec ID : 2000
      Duration : 1h 42mn
      Bit rate mode : Constant
      Bit rate : 128 Kbps
      Channel(s) : 2 channels
      Channel positions : Front: L R
      Sampling rate : 44.1 KHz
      Bit depth : 16 bits
      Compression mode : Lossy
      Stream size : 93.7 MiB (7%)
      Alignment : Split accross interleaves
      Interleave, duration : 40 ms (1.00 video frame)
      Interleave, preload duration : 500 ms









реклама партнёра


Вернуться к началу
 Профиль  
 
   Похожие торренты   Автор   Торрент   Размер 
В этой теме нет новых непрочитанных сообщений. Вкус Америки (Ефим Грибов) [драма, 2014] WEB-DL 1080p

Dracon

2 | 4

2.95 ГБ

В этой теме нет новых непрочитанных сообщений. Нападение людей-грибов / Matango [ужасы, фантастика, триллер, драма, детектив, 1963] DVDRip, Avo

salma3

19 | 4

1.17 ГБ

В этой теме нет новых непрочитанных сообщений. Сперма на вкус не приятна [2014 г., Amateur, CamRip]

Dievas

11 | 3

144.18 МБ

В этой теме нет новых непрочитанных сообщений. Ты не ты / You're Not You [драма, 2014] WEB-DLRip, avo

Dracon

344 | 24

1.37 ГБ

В этой теме нет новых непрочитанных сообщений. Уездная драма / Предмет обожания (Драма, 2014) WEB-DLRip-AVC от Files-x

marya111

0 | 0

1021.39 МБ

В этой теме нет новых непрочитанных сообщений. Spaint - Вкус земли - Цвет неба [2011, Modern Metal, MP3]

PriZraK

0 | 1

181.64 МБ

В этой теме нет новых непрочитанных сообщений. Одержимость / Whiplash [Драма, 2014] WEB-DLRip, Mvo

Dracon

11 | 2

1.46 ГБ


Начать новую тему Ответить на тему  [ 1 сообщение ] 




Для Мосгорсуда, Роскомнадзора и рекламодателей:: mosgorsud-torrent[собачка]yandex.ru